<?xml version="1.0" standalone="no"?>
<!DOCTYPE svg PUBLIC "-//W3C//DTD SVG 1.1//EN" "http://www.w3.org/Graphics/SVG/1.1/DTD/svg11.dtd" >
<svg xmlns="http://www.w3.org/2000/svg" xmlns:xlink="http://www.w3.org/1999/xlink" version="1.1">
<metadata>
Created by FontForge 20201107 at Wed Oct 11 13:03:53 2023
 By 
Copyright 2022 The Rethink Sans Project Authors (https://github.com/hans-thiessen/Rethink-Sans)
</metadata>
<defs>
<font id="RethinkSans-Bold" horiz-adv-x="0" >
  <font-face 
    font-family="Rethink Sans"
    font-weight="700"
    font-stretch="normal"
    units-per-em="1000"
    panose-1="0 0 0 0 0 0 0 0 0 0"
    ascent="800"
    descent="-200"
    x-height="496"
    cap-height="700"
    bbox="-220 -274 4821 975"
    underline-thickness="50"
    underline-position="-125"
    unicode-range="U+000D-FB02"
  />
<missing-glyph horiz-adv-x="529" 
d="M64 0v700h401v-700h-401zM134 57h261v586h-261v-586z" />
    <glyph glyph-name="uni018E" unicode="E&#x3c;" horiz-adv-x="554" 
d="M45 0v109h321v206h-275v109h275v167h-321v109h449v-700h-449z" />
    <glyph glyph-name="Yacy" unicode="R&#x3c;" horiz-adv-x="615" 
d="M22 0l195 316q-69 17 -109 62t-40 120q0 65 30 110t84 68.5t126 23.5h243v-700h-128v295h-78l-172 -295h-151zM311 404h112v187h-112q-44 0 -69 -12t-34.5 -33t-9.5 -48t9.5 -48t34.5 -33.5t69 -12.5z" />
    <glyph glyph-name="arrowleft" unicode="&#x3c;&#x2d;&#x2d;" horiz-adv-x="821" 
d="M273 120l-229 230l229 230l71 -71l-68 -68l-44 -38h525v-105h-525l44 -39l68 -67z" />
    <glyph glyph-name="arrowup" unicode="&#x3c;&#x2d;&#x2d;&#x2d;" horiz-adv-x="509" 
d="M202 0v524l-38 -44l-68 -68l-71 71l230 229l229 -229l-71 -71l-68 68l-38 44v-524h-105z" />
    <glyph glyph-name="arrowright" unicode="&#x2d;&#x2d;&#x3e;" horiz-adv-x="821" 
d="M548 120l-71 72l68 67l44 39h-525v105h525l-44 38l-68 68l71 71l229 -230z" />
    <glyph glyph-name="arrowdown" unicode="&#x2d;&#x2d;&#x2d;&#x3e;" horiz-adv-x="509" 
d="M254 -12l-229 229l71 71l68 -68l38 -44v524h105v-524l38 44l68 68l71 -71z" />
    <glyph glyph-name="uni24EA" unicode="&#x28;&#x30;&#x29;" horiz-adv-x="778" 
d="M389 -12q-75 0 -140.5 28t-115.5 78t-78 115.5t-28 140.5t28 140.5t78 115.5t115.5 78t140.5 28t140.5 -28t115.5 -78t78 -115.5t28 -140.5t-28 -140.5t-78 -115.5t-115.5 -78t-140.5 -28zM389 56q63 0 116.5 22t93.5 62t62 93.5t22 116.5t-22 116.5t-62 93.5t-93.5 62
t-116.5 22t-116 -22t-93 -62t-62 -93.5t-22 -116.5t22 -116.5t62 -93.5t93 -62t116 -22zM390 165q-70 0 -103 51q-16 25 -24 58.5t-8 75.5t8 75.5t24 58.5q33 51 103 51q69 0 102 -50q32 -50 32 -135t-32 -135q-33 -50 -102 -50zM390 236q27 0 40 30q6 15 9.5 36t3.5 48
t-3.5 48t-9.5 36q-13 29 -40 29q-28 0 -41 -29t-13 -84t13 -84q14 -30 41 -30z" />
    <glyph glyph-name="uni2780" unicode="&#x28;&#x31;&#x29;" horiz-adv-x="778" 
d="M389 -12q-75 0 -140.5 28t-115.5 78t-78 115.5t-28 140.5t28 140.5t78 115.5t115.5 78t140.5 28t140.5 -28t115.5 -78t78 -115.5t28 -140.5t-28 -140.5t-78 -115.5t-115.5 -78t-140.5 -28zM389 56q63 0 116.5 22t93.5 62t62 93.5t22 116.5t-22 116.5t-62 93.5t-93.5 62
t-116.5 22t-116 -22t-93 -62t-62 -93.5t-22 -116.5t22 -116.5t62 -93.5t93 -62t116 -22zM277 176v70h87v198l-83 -15v63l116 41h42v-287h80v-70h-242z" />
    <glyph glyph-name="uni2781" unicode="&#x28;&#x32;&#x29;" horiz-adv-x="778" 
d="M389 -12q-75 0 -140.5 28t-115.5 78t-78 115.5t-28 140.5t28 140.5t78 115.5t115.5 78t140.5 28t140.5 -28t115.5 -78t78 -115.5t28 -140.5t-28 -140.5t-78 -115.5t-115.5 -78t-140.5 -28zM389 56q63 0 116.5 22t93.5 62t62 93.5t22 116.5t-22 116.5t-62 93.5t-93.5 62
t-116.5 22t-116 -22t-93 -62t-62 -93.5t-22 -116.5t22 -116.5t62 -93.5t93 -62t116 -22zM264 176v54l103 106q11 11 26.5 27t27.5 33t12 32q0 21 -11 32.5t-33 11.5q-26 0 -37 -17t-11 -37h-77q1 44 18.5 70.5t46 39t62.5 12.5q35 0 62 -13t42.5 -37t15.5 -58q0 -29 -14 -54
t-35 -46.5t-41 -41.5l-45 -44h142v-70h-254z" />
    <glyph glyph-name="uni2782" unicode="&#x28;&#x33;&#x29;" horiz-adv-x="778" 
d="M389 -12q-75 0 -140.5 28t-115.5 78t-78 115.5t-28 140.5t28 140.5t78 115.5t115.5 78t140.5 28t140.5 -28t115.5 -78t78 -115.5t28 -140.5t-28 -140.5t-78 -115.5t-115.5 -78t-140.5 -28zM389 56q63 0 116.5 22t93.5 62t62 93.5t22 116.5t-22 116.5t-62 93.5t-93.5 62
t-116.5 22t-116 -22t-93 -62t-62 -93.5t-22 -116.5t22 -116.5t62 -93.5t93 -62t116 -22zM390 158q-59 0 -95.5 31t-35.5 94h77q0 -31 17 -43.5t37 -12.5q23 0 38 12t15 40q0 26 -16.5 38.5t-36.5 12.5q-10 0 -19 -2.5t-18 -7.5l-43 50l99 83h-142v69h242v-68l-78 -64
q50 -9 69.5 -40.5t19.5 -69.5q0 -59 -37.5 -90.5t-92.5 -31.5z" />
    <glyph glyph-name="uni2783" unicode="&#x28;&#x34;&#x29;" horiz-adv-x="778" 
d="M389 -12q-75 0 -140.5 28t-115.5 78t-78 115.5t-28 140.5t28 140.5t78 115.5t115.5 78t140.5 28t140.5 -28t115.5 -78t78 -115.5t28 -140.5t-28 -140.5t-78 -115.5t-115.5 -78t-140.5 -28zM401 176v60h-164v65l118 232h78l-111 -228h85v87h75v-87h34v-69h-34v-60h-81z
M389 56q63 0 116.5 22t93.5 62t62 93.5t22 116.5t-22 116.5t-62 93.5t-93.5 62t-116.5 22t-116 -22t-93 -62t-62 -93.5t-22 -116.5t22 -116.5t62 -93.5t93 -62t116 -22z" />
    <glyph glyph-name="uni2784" unicode="&#x28;&#x35;&#x29;" horiz-adv-x="778" 
d="M389 -12q-75 0 -140.5 28t-115.5 78t-78 115.5t-28 140.5t28 140.5t78 115.5t115.5 78t140.5 28t140.5 -28t115.5 -78t78 -115.5t28 -140.5t-28 -140.5t-78 -115.5t-115.5 -78t-140.5 -28zM389 56q63 0 116.5 22t93.5 62t62 93.5t22 116.5t-22 116.5t-62 93.5t-93.5 62
t-116.5 22t-116 -22t-93 -62t-62 -93.5t-22 -116.5t22 -116.5t62 -93.5t93 -62t116 -22zM392 160q-54 0 -92.5 28t-40.5 82h78q5 -19 20.5 -30t34.5 -11q24 0 38.5 18.5t14.5 43.5q0 24 -14 40.5t-38 16.5q-17 0 -32 -9.5t-21 -24.5h-77l30 210h206v-70h-146l-14 -66
q13 13 31.5 19t36.5 6q40 0 65.5 -18t37.5 -45.5t12 -58.5q0 -57 -36.5 -94t-93.5 -37z" />
    <glyph glyph-name="uni2785" unicode="&#x28;&#x36;&#x29;" horiz-adv-x="778" 
d="M389 -12q-75 0 -140.5 28t-115.5 78t-78 115.5t-28 140.5t28 140.5t78 115.5t115.5 78t140.5 28t140.5 -28t115.5 -78t78 -115.5t28 -140.5t-28 -140.5t-78 -115.5t-115.5 -78t-140.5 -28zM389 56q63 0 116.5 22t93.5 62t62 93.5t22 116.5t-22 116.5t-62 93.5t-93.5 62
t-116.5 22t-116 -22t-93 -62t-62 -93.5t-22 -116.5t22 -116.5t62 -93.5t93 -62t116 -22zM392 233q16 0 32.5 11.5t16.5 39.5q0 29 -16.5 40.5t-34.5 11.5q-21 0 -35 -14t-14 -36q0 -23 14 -38t37 -15zM396 165q-50 0 -81.5 24.5t-46 64.5t-14.5 86q0 50 14 94.5t44.5 72.5
t80.5 28q35 0 61 -14t41.5 -38t16.5 -55h-73q-4 19 -15 30.5t-31 11.5q-25 0 -37.5 -17.5t-16.5 -43t-5 -50.5q10 17 30.5 31t48.5 14q32 0 55.5 -17t36 -44t12.5 -56q0 -32 -14.5 -60t-41.5 -45t-65 -17z" />
    <glyph glyph-name="uni2786" unicode="&#x28;&#x37;&#x29;" horiz-adv-x="778" 
d="M389 -12q-75 0 -140.5 28t-115.5 78t-78 115.5t-28 140.5t28 140.5t78 115.5t115.5 78t140.5 28t140.5 -28t115.5 -78t78 -115.5t28 -140.5t-28 -140.5t-78 -115.5t-115.5 -78t-140.5 -28zM305 167l135 289h-183v68h269v-56l-138 -301h-83zM389 56q63 0 116.5 22t93.5 62
t62 93.5t22 116.5t-22 116.5t-62 93.5t-93.5 62t-116.5 22t-116 -22t-93 -62t-62 -93.5t-22 -116.5t22 -116.5t62 -93.5t93 -62t116 -22z" />
    <glyph glyph-name="uni2787" unicode="&#x28;&#x38;&#x29;" horiz-adv-x="778" 
d="M389 -12q-75 0 -140.5 28t-115.5 78t-78 115.5t-28 140.5t28 140.5t78 115.5t115.5 78t140.5 28t140.5 -28t115.5 -78t78 -115.5t28 -140.5t-28 -140.5t-78 -115.5t-115.5 -78t-140.5 -28zM391 231q23 0 36 13t13 36t-13 36.5t-36 13.5q-22 0 -36.5 -12t-14.5 -38
q0 -22 11.5 -35.5t39.5 -13.5zM389 56q63 0 116.5 22t93.5 62t62 93.5t22 116.5t-22 116.5t-62 93.5t-93.5 62t-116.5 22t-116 -22t-93 -62t-62 -93.5t-22 -116.5t22 -116.5t62 -93.5t93 -62t116 -22zM390 165q-33 0 -62.5 13t-48 37t-18.5 57q0 31 13 54.5t41 37.5
q-22 14 -34 32t-12 43q0 46 34.5 71t86.5 25q29 0 56 -9.5t45 -30.5t18 -56q0 -28 -14 -47t-31 -28q29 -13 41.5 -37t12.5 -55q0 -35 -18 -59t-47 -36t-63 -12zM390 386q17 0 28.5 9t11.5 33q0 20 -10 31.5t-30 11.5q-41 0 -41 -43q0 -20 11 -31t30 -11z" />
    <glyph glyph-name="uni2788" unicode="&#x28;&#x39;&#x29;" horiz-adv-x="778" 
d="M389 -12q-75 0 -140.5 28t-115.5 78t-78 115.5t-28 140.5t28 140.5t78 115.5t115.5 78t140.5 28t140.5 -28t115.5 -78t78 -115.5t28 -140.5t-28 -140.5t-78 -115.5t-115.5 -78t-140.5 -28zM389 56q63 0 116.5 22t93.5 62t62 93.5t22 116.5t-22 116.5t-62 93.5t-93.5 62
t-116.5 22t-116 -22t-93 -62t-62 -93.5t-22 -116.5t22 -116.5t62 -93.5t93 -62t116 -22zM384 165q-38 0 -64.5 16t-40 41t-13.5 50h73q5 -19 15.5 -30.5t30.5 -11.5q26 0 38 19t16.5 45t4.5 47q-11 -17 -31 -31t-48 -14q-21 0 -45 12t-41.5 37.5t-17.5 67.5q0 33 14.5 60.5
t41.5 44.5t64 17q53 0 84 -25t44.5 -65t13.5 -85q0 -53 -14.5 -97.5t-45 -71t-79.5 -26.5zM387 364q21 0 35.5 14.5t14.5 35.5q0 23 -14.5 38t-37.5 15q-19 0 -34 -14t-15 -37q0 -22 14.5 -37t36.5 -15z" />
    <glyph glyph-name="uni278A" unicode="&#x7b;&#x31;&#x7d;" horiz-adv-x="778" 
d="M389 -12q-75 0 -140.5 28t-115.5 78t-78 115.5t-28 140.5t28 140.5t78 115.5t115.5 78t140.5 28t140.5 -28t115.5 -78t78 -115.5t28 -140.5t-28 -140.5t-78 -115.5t-115.5 -78t-140.5 -28zM277 176h242v70h-80v287h-42l-116 -41v-63l83 15v-198h-87v-70z" />
    <glyph glyph-name="uni278B" unicode="&#x7b;&#x32;&#x7d;" horiz-adv-x="778" 
d="M389 -12q-75 0 -140.5 28t-115.5 78t-78 115.5t-28 140.5t28 140.5t78 115.5t115.5 78t140.5 28t140.5 -28t115.5 -78t78 -115.5t28 -140.5t-28 -140.5t-78 -115.5t-115.5 -78t-140.5 -28zM264 176h254v70h-142l45 44q20 20 41 41.5t35 46.5t14 54q0 34 -15.5 58
t-42.5 37t-62 13q-34 0 -62.5 -12.5t-46 -39t-18.5 -70.5h77q0 20 11 37t37 17q22 0 33 -11.5t11 -32.5q0 -15 -12 -32t-27.5 -33t-26.5 -27l-103 -106v-54z" />
    <glyph glyph-name="uni278C" unicode="&#x7b;&#x33;&#x7d;" horiz-adv-x="778" 
d="M389 -12q-75 0 -140.5 28t-115.5 78t-78 115.5t-28 140.5t28 140.5t78 115.5t115.5 78t140.5 28t140.5 -28t115.5 -78t78 -115.5t28 -140.5t-28 -140.5t-78 -115.5t-115.5 -78t-140.5 -28zM390 158q55 0 92.5 31.5t37.5 90.5q0 38 -19.5 69.5t-69.5 40.5l78 64v68h-242
v-69h142l-99 -83l43 -50q9 5 18 7.5t19 2.5q20 0 36.5 -12.5t16.5 -38.5q0 -28 -15 -40t-38 -12q-20 0 -37 12.5t-17 43.5h-77q-1 -63 35.5 -94t95.5 -31z" />
    <glyph glyph-name="uni278D" unicode="&#x7b;&#x34;&#x7d;" horiz-adv-x="778" 
d="M389 -12q-75 0 -140.5 28t-115.5 78t-78 115.5t-28 140.5t28 140.5t78 115.5t115.5 78t140.5 28t140.5 -28t115.5 -78t78 -115.5t28 -140.5t-28 -140.5t-78 -115.5t-115.5 -78t-140.5 -28zM401 176h81v60h34v69h-34v87h-75v-87h-85l111 228h-78l-118 -232v-65h164v-60z
" />
    <glyph glyph-name="uni278E" unicode="&#x7b;&#x35;&#x7d;" horiz-adv-x="778" 
d="M389 -12q-75 0 -140.5 28t-115.5 78t-78 115.5t-28 140.5t28 140.5t78 115.5t115.5 78t140.5 28t140.5 -28t115.5 -78t78 -115.5t28 -140.5t-28 -140.5t-78 -115.5t-115.5 -78t-140.5 -28zM392 160q57 0 93.5 37t36.5 94q0 31 -12 58.5t-37.5 45.5t-65.5 18
q-18 0 -36.5 -6t-31.5 -19l14 66h146v70h-206l-30 -210h77q6 15 21 24.5t32 9.5q24 0 38 -16.5t14 -40.5q0 -25 -14.5 -43.5t-38.5 -18.5q-19 0 -34.5 11t-20.5 30h-78q2 -54 40.5 -82t92.5 -28z" />
    <glyph glyph-name="uni278F" unicode="&#x7b;&#x36;&#x7d;" horiz-adv-x="778" 
d="M389 -12q-75 0 -140.5 28t-115.5 78t-78 115.5t-28 140.5t28 140.5t78 115.5t115.5 78t140.5 28t140.5 -28t115.5 -78t78 -115.5t28 -140.5t-28 -140.5t-78 -115.5t-115.5 -78t-140.5 -28zM392 233q-23 0 -37 15t-14 38q0 22 14 36t35 14q18 0 34.5 -11.5t16.5 -40.5
q0 -28 -16.5 -39.5t-32.5 -11.5zM396 165q38 0 65 17t41.5 45t14.5 60q0 29 -12.5 56t-36 44t-55.5 17q-28 0 -48.5 -14t-30.5 -31q1 25 5 50.5t16.5 43t37.5 17.5q20 0 31 -11.5t15 -30.5h73q-1 31 -16.5 55t-41.5 38t-61 14q-50 0 -80.5 -28t-44.5 -72.5t-14 -94.5
q0 -46 14.5 -86t46 -64.5t81.5 -24.5z" />
    <glyph glyph-name="uni2790" unicode="&#x7b;&#x37;&#x7d;" horiz-adv-x="778" 
d="M389 -12q-75 0 -140.5 28t-115.5 78t-78 115.5t-28 140.5t28 140.5t78 115.5t115.5 78t140.5 28t140.5 -28t115.5 -78t78 -115.5t28 -140.5t-28 -140.5t-78 -115.5t-115.5 -78t-140.5 -28zM305 167h83l138 301v56h-269v-68h183z" />
    <glyph glyph-name="uni2791" unicode="&#x7b;&#x38;&#x7d;" horiz-adv-x="778" 
d="M389 -12q-75 0 -140.5 28t-115.5 78t-78 115.5t-28 140.5t28 140.5t78 115.5t115.5 78t140.5 28t140.5 -28t115.5 -78t78 -115.5t28 -140.5t-28 -140.5t-78 -115.5t-115.5 -78t-140.5 -28zM390 165q34 0 63 12t47 36t18 59q0 31 -12.5 55t-41.5 37q17 9 31 28t14 47
q0 35 -18 56t-45 30.5t-56 9.5q-52 0 -86.5 -25t-34.5 -71q0 -25 12 -43t34 -32q-28 -14 -41 -37.5t-13 -54.5q0 -33 18.5 -57t48 -37t62.5 -13zM391 231q-28 0 -39.5 13.5t-11.5 35.5q0 26 14.5 38t36.5 12q23 0 36 -13.5t13 -36.5t-13 -36t-36 -13zM390 386q-19 0 -30 11
t-11 31q0 43 41 43q20 0 30 -11.5t10 -31.5q0 -24 -11.5 -33t-28.5 -9z" />
    <glyph glyph-name="uni2792" unicode="&#x7b;&#x39;&#x7d;" horiz-adv-x="778" 
d="M389 -12q-75 0 -140.5 28t-115.5 78t-78 115.5t-28 140.5t28 140.5t78 115.5t115.5 78t140.5 28t140.5 -28t115.5 -78t78 -115.5t28 -140.5t-28 -140.5t-78 -115.5t-115.5 -78t-140.5 -28zM384 165q49 0 79.5 26.5t45 71t14.5 97.5q0 45 -13.5 85t-44.5 65t-84 25
q-37 0 -64 -17t-41.5 -44.5t-14.5 -60.5q0 -42 17.5 -67.5t41.5 -37.5t45 -12q28 0 48 14t31 31q0 -21 -4.5 -47t-16.5 -45t-38 -19q-20 0 -30.5 11.5t-15.5 30.5h-73q0 -25 13.5 -50t40 -41t64.5 -16zM387 364q-22 0 -36.5 15t-14.5 37q0 23 15 37t34 14q23 0 37.5 -15
t14.5 -38q0 -21 -14.5 -35.5t-35.5 -14.5z" />
    <glyph glyph-name="fi" unicode="fi" horiz-adv-x="534" 
d="M58 0v389h-58v107h58v38q0 90 45.5 128t123.5 38h42v-109h-22q-33 0 -47 -13t-14 -44v-38h89v-107h-89v-389h-128zM356 0v496h128v-496h-128zM420 560q-34 0 -58.5 24.5t-24.5 58.5q0 35 24.5 59t58.5 24q35 0 59 -24t24 -59q0 -34 -24 -58.5t-59 -24.5z" />
    <glyph glyph-name="fl" unicode="fl" horiz-adv-x="527" 
d="M58 0v389h-58v107h58v38q0 90 45.5 128t123.5 38h42v-109h-22q-33 0 -47 -13t-14 -44v-38h89v-107h-89v-389h-128zM353 0v700h128v-700h-128z" />
    <glyph glyph-name="zero.circled.solid" unicode="&#x7b;&#x30;&#x7d;" horiz-adv-x="778" 
d="M389 -12q-75 0 -140.5 28t-115.5 78t-78 115.5t-28 140.5t28 140.5t78 115.5t115.5 78t140.5 28t140.5 -28t115.5 -78t78 -115.5t28 -140.5t-28 -140.5t-78 -115.5t-115.5 -78t-140.5 -28zM390 165q69 0 102 50q32 50 32 135t-32 135q-33 50 -102 50q-70 0 -103 -51
q-16 -25 -24 -58.5t-8 -75.5t8 -75.5t24 -58.5q33 -51 103 -51zM390 236q-27 0 -41 30q-13 29 -13 84t13 84t41 29q27 0 40 -29q6 -15 9.5 -36t3.5 -48t-3.5 -48t-9.5 -36q-13 -30 -40 -30z" />
    <glyph glyph-name="registered.case" unicode="&#xae;&#x2b;" horiz-adv-x="377" 
d="M189 629q-39 0 -72 19.5t-52.5 52t-19.5 71.5q0 40 19.5 72.5t52.5 52t72 19.5q40 0 72 -19.5t51.5 -52t19.5 -72.5q0 -39 -19.5 -71.5t-51.5 -52t-72 -19.5zM122 700q1 2 7 13t14 24.5t14 24l6 10.5q-29 10 -29 39q0 15 10 29.5t38 14.5h54v-155h-28v65h-18l-5 -9.5
t-12 -22t-12.5 -22.5t-5.5 -11h-33zM189 652q33 0 60.5 16.5t43.5 43.5t16 60t-16 60.5t-43.5 43.5t-60.5 16t-60 -16t-43.5 -43.5t-16.5 -60.5t16.5 -60t43.5 -43.5t60 -16.5zM189 789h19v43h-22q-25 0 -25 -21q0 -11 8 -16.5t20 -5.5z" />
    <glyph glyph-name="REbackwards" unicode="RE&#x3c;" horiz-adv-x="1174" 
d="M22 0l195 316q-69 17 -109 62t-40 120q0 65 30 110t84 68.5t126 23.5h243v-700h-128v295h-78l-172 -295h-151zM311 404h112v187h-112q-44 0 -69 -12t-34.5 -33t-9.5 -48t9.5 -48t34.5 -33.5t69 -12.5zM660 0v109h321v206h-275v109h275v167h-321v109h449v-700h-449z" />
    <glyph glyph-name="RethinkWordmark" unicode="R&#x3e;" horiz-adv-x="4877" 
d="M3130 0v700h128l329 -489v489h128v-700h-128l-329 488v-488h-128zM22 0l195 316q-71 17 -110 63q-39 47 -39 119q0 96 65 149q67 53 175 53h243v-700h-128v295h-78l-172 -295h-151zM311 404h112v187h-112q-62 0 -87 -25q-26 -24 -26 -68q0 -43 25 -70q26 -24 88 -24z
M736 0v109h321v206h-275v109h275v167h-321v109h449v-700h-449zM1552 0v591h-204v109h537v-109h-205v-591h-128zM2042 0v700h128v-275h314v275h128v-700h-128v316h-314v-316h-128zM2807 0v700h128v-700h-128zM3909 0v700h128v-269l240 269h161l-244 -267l267 -433h-151
l-202 339l-71 -78v-261h-128zM4611 700l41 72q-29 11 -29 39q0 16 10 30t38 14h54v-155h-28v65h-18l-35 -65h-33zM4678 629q-41 0 -73.5 20t-51.5 52.5t-19 70.5q0 35 17.5 68t50 54.5t76.5 21.5q40 0 72.5 -19.5t51.5 -52t19 -72.5q0 -39 -19 -71.5t-51 -52t-73 -19.5z
M4678 652q33 0 60.5 16.5t43.5 43.5t16 60q0 34 -16 61t-43 43t-61 16q-33 0 -60 -16t-43.5 -43.5t-16.5 -60.5q0 -32 16.5 -59.5t44 -44t59.5 -16.5zM4678 789h19v43h-22q-25 0 -25 -21q0 -11 8.5 -16.5t19.5 -5.5z" />
    <glyph glyph-name="Rlogobig" unicode="&#x28;R&#x29;" horiz-adv-x="806" 
d="M403 -12q-75 0 -140.5 28t-115.5 78t-78 115.5t-28 140.5t28 140.5t78 115.5t115.5 78t140.5 28t140.5 -28t115.5 -78t78 -115.5t28 -140.5t-28 -140.5t-78 -115.5t-115.5 -78t-140.5 -28zM234 168q2 3 12.5 22t25.5 45.5t30 52.5t25 43.5l10 17.5q-33 11 -53.5 36
t-20.5 62q0 26 11 51.5t37.5 43t74.5 17.5h137v-391h-73v165h-45l-8.5 -16.5t-21.5 -40.5t-26 -48.5t-22 -41.5t-9 -18h-84zM403 47q63 0 117.5 23.5t96 65.5t65 96.5t23.5 117.5t-23.5 117.5t-65 96t-96 65t-117.5 23.5t-117.5 -23.5t-96.5 -65t-65.5 -96t-23.5 -117.5
t23.5 -117.5t65.5 -96.5t96.5 -65.5t117.5 -23.5zM404 392h46v109h-55q-27 0 -45 -14t-18 -40q0 -28 20.5 -41.5t51.5 -13.5z" />
    <glyph glyph-name=".notdef" horiz-adv-x="529" 
d="M64 0v700h401v-700h-401zM134 57h261v586h-261v-586z" />
    <glyph glyph-name=".null" 
 />
    <glyph glyph-name="nonmarkingreturn" horiz-adv-x="333" 
 />
    <glyph glyph-name="CR" unicode="&#xd;" horiz-adv-x="600" 
 />
    <glyph glyph-name="space" unicode=" " horiz-adv-x="230" 
 />
    <glyph glyph-name="exclam" unicode="!" horiz-adv-x="286" 
d="M87 221l-14 479h137l-15 -479h-108zM143 -12q-35 0 -59 24.5t-24 58.5q0 35 24 59t59 24t59 -24t24 -59q0 -34 -24 -58.5t-59 -24.5z" />
    <glyph glyph-name="quotedbl" unicode="&#x22;" horiz-adv-x="456" 
d="M233 455l55 246h135l-102 -246h-88zM41 455l55 246h135l-102 -246h-88z" />
    <glyph glyph-name="numbersign" unicode="#" horiz-adv-x="860" 
d="M140 0l37 175h-144v115h169l31 146h-147v115h172l37 172h120l-37 -172h190l37 172h120l-36 -172h130v-115h-155l-31 -146h133v-115h-158l-37 -175h-121l38 175h-190l-37 -175h-121zM322 290h190l32 146h-190z" />
    <glyph glyph-name="dollar" unicode="$" horiz-adv-x="590" 
d="M255 -86v77q-61 8 -109.5 35t-76.5 73.5t-30 111.5h135q2 -38 23 -67t58 -41v204l-9 3q-69 23 -111 53.5t-60.5 67.5t-18.5 81q0 60 26 102t71 66.5t102 29.5v81h69v-81q58 -5 104 -30t74 -67.5t29 -102.5h-137q-1 30 -19 54.5t-51 34.5v-186l35 -12q26 -9 58.5 -23
t62.5 -37.5t49.5 -59t19.5 -87.5q0 -61 -29.5 -105.5t-80 -70t-115.5 -29.5v-75h-69zM324 97q41 5 65 28t24 60q0 22 -7 38.5t-26 30.5t-56 28v-185zM255 442v158q-28 -7 -46.5 -27t-18.5 -52q0 -27 17.5 -45.5t47.5 -33.5z" />
    <glyph glyph-name="percent" unicode="%" horiz-adv-x="872" 
d="M174 0l395 700h125l-395 -700h-125zM212 356q-48 0 -87 21.5t-62 61.5q-23 41 -23 95q0 55 23 95t62 62q39 21 88 21q48 0 86.5 -21.5t61.5 -61.5q11 -20 17 -43.5t6 -51.5q0 -55 -23 -95t-62 -61q-38 -22 -87 -22zM212 445q29 0 50 22.5t21 66.5t-20.5 67t-50.5 23
t-50.5 -23t-20.5 -67t20.5 -66.5t50.5 -22.5zM660 -12q-48 0 -87 21.5t-62 61.5q-23 41 -23 95q0 55 23 94.5t62 61.5q39 21 88 21q48 0 86.5 -21.5t61.5 -60.5q11 -20 17 -43.5t6 -51.5q0 -55 -23 -95t-61 -61q-38 -22 -88 -22zM660 77q30 0 50.5 22.5t20.5 66.5t-20.5 67
t-50.5 23t-50.5 -23t-20.5 -67t20.5 -66.5t50.5 -22.5z" />
    <glyph glyph-name="ampersand" unicode="&#x26;" horiz-adv-x="713" 
d="M278 -12q-47 0 -89.5 14.5t-75 42.5t-51.5 67.5t-19 89.5q0 35 11 67t31.5 61t50.5 52l9 7l-9 13q-20 29 -29.5 57.5t-9.5 58.5q0 58 27.5 101.5t76 68t111.5 24.5t111.5 -24.5t76 -69.5t27.5 -108h-127q0 21 -9 41t-29 33t-52 13q-29 0 -48 -12t-28 -30t-9 -37
q0 -37 27.5 -71t75.5 -82l121 -121l100 161h136l-153 -244l161 -161h-161l-68 68l-10 -10q-35 -35 -80.5 -52.5t-95.5 -17.5zM286 105q26 0 49 9.5t49 33.5l-161 160q-28 -22 -40 -46t-12 -50q0 -30 16 -54t42.5 -38.5t56.5 -14.5z" />
    <glyph glyph-name="quotesingle" unicode="'" horiz-adv-x="241" 
d="M31 454l55 246h135l-102 -246h-88z" />
    <glyph glyph-name="parenleft" unicode="(" horiz-adv-x="399" 
d="M239 -145q-56 56 -99 129.5t-69 161.5q-13 44 -19.5 91t-6.5 96q0 99 26 187.5t69 161.5q44 74 99 129h128v-12q-90 -95 -143 -214.5t-53 -251.5t53 -251.5t143 -214.5v-12h-128z" />
    <glyph glyph-name="parenright" unicode=")" horiz-adv-x="399" 
d="M32 -145v12q90 95 143 214.5t53 251.5t-53 251.5t-143 214.5v12h128q28 -28 53 -60t47 -69q44 -73 69 -161.5t25 -187.5q0 -49 -6 -96t-19 -91q-25 -88 -69 -161.5t-100 -129.5h-128z" />
    <glyph glyph-name="asterisk" unicode="*" horiz-adv-x="499" 
d="M211 360v120l-104 -60l-39 69l103 60l-103 59l39 69l104 -60v120h79v-120l104 60l40 -69l-104 -59l104 -60l-40 -69l-104 60v-120h-79z" />
    <glyph glyph-name="plus" unicode="+" horiz-adv-x="600" 
d="M246 53v183h-188v107h188v183h109v-183h187v-107h-187v-183h-109z" />
    <glyph glyph-name="comma" unicode="," horiz-adv-x="230" 
d="M14 -116l57 249h124l-97 -249h-84z" />
    <glyph glyph-name="hyphen" unicode="-" horiz-adv-x="433" 
d="M54 236v107h325v-107h-325z" />
    <glyph glyph-name="period" unicode="." horiz-adv-x="226" 
d="M113 -12q-35 0 -59 24.5t-24 58.5q0 35 24 59t59 24t59 -24t24 -59q0 -34 -24 -58.5t-59 -24.5z" />
    <glyph glyph-name="slash" unicode="/" horiz-adv-x="421" 
d="M23 -111l250 888h125l-251 -888h-124z" />
    <glyph glyph-name="zero" unicode="0" horiz-adv-x="580" 
d="M291 -12q-96 0 -154 48t-84 130t-26 184t26 184t84 130t154 48t153.5 -47t83.5 -129t26 -186t-26 -186t-83.5 -129t-153.5 -47zM291 102q69 0 101 66.5t32 181.5t-32 181.5t-101 66.5t-101.5 -66.5t-32.5 -181.5t32.5 -181.5t101.5 -66.5z" />
    <glyph glyph-name="one" unicode="1" horiz-adv-x="580" 
d="M79 0v109h188v448l-182 -41v98l236 86h67v-591h165v-109h-474z" />
    <glyph glyph-name="two" unicode="2" horiz-adv-x="580" 
d="M53 0v92l10 10.5t27 28.5t39.5 41.5t48 50t51.5 53.5q44 46 81.5 84.5t60 73t22.5 66.5q0 47 -28.5 75.5t-75.5 28.5q-37 0 -62 -17t-37 -45t-12 -61h-124q2 75 32 126.5t83 78t123 26.5q78 0 128 -28.5t74 -76t24 -105.5q0 -49 -21.5 -90.5t-58 -81.5t-81.5 -85
l-48.5 -48.5t-37.5 -38t-26.5 -27.5t-16 -16.5l-5.5 -5.5h312v-109h-482z" />
    <glyph glyph-name="three" unicode="3" horiz-adv-x="580" 
d="M292 -12q-74 0 -130 26t-88 77t-34 125h124q1 -51 35 -85t93 -34q56 0 91 31t35 92q0 57 -35.5 87t-89.5 30q-21 0 -39.5 -5.5t-34.5 -14.5l-71 82l213 192h-300v109h458v-106l-178 -161q50 -4 87.5 -22.5t62.5 -47.5t37.5 -65.5t12.5 -76.5q0 -73 -31.5 -125.5
t-87.5 -80t-130 -27.5z" />
    <glyph glyph-name="four" unicode="4" horiz-adv-x="580" 
d="M352 0v130h-320v102l235 468h126l-226 -459h193v182h120v-182h81v-111h-81v-130h-128z" />
    <glyph glyph-name="five" unicode="5" horiz-adv-x="580" 
d="M296 -12q-72 0 -128 25.5t-89.5 72.5t-38.5 111h125q9 -43 44 -71.5t87 -28.5q38 0 66.5 19t44.5 51.5t16 72.5q0 63 -35.5 100t-89.5 37q-45 0 -78 -22t-47 -55h-123l60 400h388v-112h-292l-32 -162q22 24 60 39.5t85 15.5q75 0 125 -33.5t76 -87.5q13 -28 19.5 -57.5
t6.5 -61.5q0 -72 -31 -129t-87 -90.5t-132 -33.5z" />
    <glyph glyph-name="six" unicode="6" horiz-adv-x="580" 
d="M311 -12q-75 0 -126.5 29t-83.5 78q-31 49 -45 109t-14 123q0 117 31.5 203.5t90.5 133.5q29 24 65 36t78 12q69 0 117 -28.5t75 -74.5q14 -23 21.5 -48t9.5 -51h-117q-9 46 -35.5 71t-71.5 25q-42 0 -73 -27t-47.5 -82.5t-18.5 -139.5q23 41 68 68t97 27q55 0 104 -28
t78 -79q30 -51 30 -120q0 -63 -29 -117t-82 -87q-52 -33 -122 -33zM304 98q34 0 60.5 15.5t41.5 43.5t15 63q0 56 -33.5 90t-85.5 34q-33 0 -60 -16.5t-42.5 -44t-15.5 -61.5q0 -36 15.5 -64t43 -44t61.5 -16z" />
    <glyph glyph-name="seven" unicode="7" horiz-adv-x="580" 
d="M134 0l278 591h-377v109h512v-91l-280 -609h-133z" />
    <glyph glyph-name="eight" unicode="8" horiz-adv-x="580" 
d="M291 -12q-67 0 -122.5 25.5t-89 72t-33.5 109.5q0 62 29.5 110.5t86.5 70.5q-46 22 -72.5 61t-26.5 88q0 60 31 102t83 63.5t114 21.5t113.5 -21.5t82.5 -63.5t31 -102q0 -49 -27 -89t-72 -60q57 -22 86.5 -71t29.5 -110q0 -50 -20 -88.5t-54.5 -65t-78.5 -40t-91 -13.5z
M292 95q53 0 85.5 29t32.5 82q0 55 -31.5 84t-86.5 29t-87.5 -29t-32.5 -84q0 -49 30 -80t90 -31zM291 414q45 0 73 25.5t28 70.5q0 47 -27 72.5t-74 25.5t-74 -25.5t-27 -72.5q0 -45 28 -70.5t73 -25.5z" />
    <glyph glyph-name="nine" unicode="9" horiz-adv-x="580" 
d="M274 -12q-69 0 -117 28.5t-75 74.5q-26 45 -31 99h117q9 -46 35.5 -71t71.5 -25q43 0 73.5 27.5t47.5 82.5t18 139q-22 -41 -67 -68t-98 -27q-55 0 -104 28t-78 79q-30 51 -30 120q0 63 29.5 117t81.5 87q53 33 122 33q75 0 127 -29t83 -78t45 -109t14 -123
q0 -117 -31.5 -203.5t-90.5 -133.5q-29 -24 -65 -36t-78 -12zM279 356q33 0 60 16.5t42.5 44t15.5 61.5q0 36 -15.5 64t-42.5 44t-62 16q-34 0 -60.5 -15.5t-41.5 -43t-15 -63.5q0 -56 33.5 -90t85.5 -34z" />
    <glyph glyph-name="colon" unicode=":" horiz-adv-x="242" 
d="M120 346q-35 0 -59 24.5t-24 58.5q0 35 24 59t59 24t59 -24t24 -59q0 -34 -24 -58.5t-59 -24.5zM120 -12q-35 0 -59 24.5t-24 58.5q0 35 24 59t59 24t59 -24t24 -59q0 -34 -24 -58.5t-59 -24.5z" />
    <glyph glyph-name="semicolon" unicode=";" horiz-adv-x="266" 
d="M24 -116l57 249h124l-97 -249h-84zM144 346q-35 0 -59 24.5t-24 58.5q0 35 24 59t59 24t59 -24t24 -59q0 -34 -24 -58.5t-59 -24.5z" />
    <glyph glyph-name="less" unicode="&#x3c;" horiz-adv-x="600" 
d="M331 133l-223 226l223 225h162l-225 -225l225 -226h-162z" />
    <glyph glyph-name="equal" unicode="=" horiz-adv-x="600" 
d="M88 345v112h424v-112h-424zM88 123v112h424v-112h-424z" />
    <glyph glyph-name="greater" unicode="&#x3e;" horiz-adv-x="600" 
d="M108 133l224 226l-224 225h161l224 -225l-224 -226h-161z" />
    <glyph glyph-name="question" unicode="?" horiz-adv-x="527" 
d="M137 218l-4 165h46q51 0 93 9t67 35q25 25 25 76q0 48 -29 75.5t-77 27.5q-50 0 -78 -27.5t-28 -74.5h-121q-1 60 26 107t79 74q26 14 56.5 20.5t66.5 6.5q67 0 118.5 -24.5t81.5 -71.5q14 -23 21.5 -51.5t7.5 -62.5q0 -69 -30 -114t-83 -67q-26 -11 -56.5 -16.5
t-65.5 -6.5l-3 -80h-113zM194 -12q-35 0 -59 24.5t-24 58.5q0 35 24 59t59 24t59 -24t24 -59q0 -34 -24 -58.5t-59 -24.5z" />
    <glyph glyph-name="at" unicode="@" horiz-adv-x="1022" 
d="M517 -212q-103 0 -185.5 33t-141 91.5t-89.5 136.5t-31 169q0 96 34 176t95 138t143 90t179 32q94 0 174.5 -29.5t140 -83.5t93 -128.5t33.5 -165.5q0 -72 -22.5 -129t-66.5 -90t-107 -33q-47 0 -80.5 22t-50.5 62q-23 -37 -59.5 -61.5t-91.5 -24.5q-62 0 -108.5 31
t-71.5 82.5t-25 112.5q0 62 26 113t72.5 81t106.5 30q41 0 78 -16.5t61 -52.5v59h107v-283q0 -28 13 -42.5t37 -14.5q34 0 53 25t26.5 60.5t7.5 66.5q0 100 -45.5 171.5t-123.5 110t-177 38.5q-75 0 -139.5 -25t-113 -71t-75.5 -110t-27 -141q0 -70 24 -132t70 -108.5
t111 -73t146 -26.5q50 0 96.5 10t87.5 31l29 -86q-20 -10 -45 -18.5t-54 -14.5q-57 -12 -114 -12zM507 90q55 0 86.5 37t31.5 91q0 36 -15 65.5t-41.5 46.5t-61.5 17q-51 0 -85 -35t-34 -93q0 -55 32.5 -92t86.5 -37z" />
    <glyph glyph-name="A" unicode="A" horiz-adv-x="694" 
d="M19 0l256 700h144l256 -700h-136l-55 159h-275l-56 -159h-134zM245 262h203l-102 291z" />
    <glyph glyph-name="B" unicode="B" horiz-adv-x="623" 
d="M64 0v700h265q109 0 166.5 -48.5t57.5 -127.5q0 -58 -28 -94.5t-70 -54.5q35 -13 64.5 -39t47.5 -61.5t18 -77.5q0 -55 -27 -100t-78 -71t-125 -26h-291zM192 109h151q57 0 84.5 26t27.5 75t-29 75t-85 26h-149v-202zM192 420h126q54 0 79 21.5t25 64.5q0 41 -24.5 63
t-81.5 22h-124v-171z" />
    <glyph glyph-name="C" unicode="C" horiz-adv-x="729" 
d="M381 -12q-108 0 -184 47t-116 128.5t-40 185.5t39 186t115 129.5t186 47.5q126 0 206.5 -62.5t100.5 -175.5h-141q-13 57 -55.5 89.5t-112.5 32.5q-64 0 -110.5 -30t-71.5 -85t-25 -132q0 -76 25 -131.5t71.5 -85t110.5 -29.5q70 0 112.5 30.5t55.5 84.5h141
q-20 -108 -100.5 -169t-206.5 -61z" />
    <glyph glyph-name="D" unicode="D" horiz-adv-x="703" 
d="M64 0v700h239q125 0 204.5 -44t117 -123t37.5 -183q0 -112 -41.5 -190.5t-121.5 -119t-196 -40.5h-239zM192 110h105q89 0 140 29t72.5 83t21.5 128q0 125 -57.5 183t-176.5 58h-105v-481z" />
    <glyph glyph-name="E" unicode="E" horiz-adv-x="562" 
d="M64 0v700h449v-109h-321v-167h275v-109h-275v-206h321v-109h-449z" />
    <glyph glyph-name="F" unicode="F" horiz-adv-x="532" 
d="M64 0v700h441v-109h-313v-175h274v-109h-274v-307h-128z" />
    <glyph glyph-name="G" unicode="G" horiz-adv-x="765" 
d="M370 -12q-99 0 -173 45t-115 126t-41 187q0 103 40 186t118.5 131.5t191.5 48.5q123 0 204 -59t105 -163h-143q-16 49 -58 76.5t-108 27.5q-70 0 -119 -30t-74.5 -85.5t-25.5 -133.5q0 -77 25.5 -131.5t73 -83t111.5 -28.5q90 0 138 46t61 122h-223v108h355v-378h-118
l-10 92q-34 -50 -85 -77t-130 -27z" />
    <glyph glyph-name="H" unicode="H" horiz-adv-x="698" 
d="M64 0v700h128v-275h314v275h128v-700h-128v316h-314v-316h-128z" />
    <glyph glyph-name="I" unicode="I" horiz-adv-x="256" 
d="M64 0v700h128v-700h-128z" />
    <glyph glyph-name="J" unicode="J" horiz-adv-x="524" 
d="M247 -12q-102 0 -163.5 57.5t-61.5 163.5h128q1 -49 23 -78t71 -29q46 0 67 27.5t21 72.5v498h128v-498q0 -103 -57.5 -158.5t-155.5 -55.5z" />
    <glyph glyph-name="K" unicode="K" horiz-adv-x="632" 
d="M595 700l-248 -269l269 -431h-151l-204 338l-69 -77v-261h-128v700h128v-269l247 269h156z" />
    <glyph glyph-name="L" unicode="L" horiz-adv-x="535" 
d="M64 0v700h128v-591h302v-109h-430z" />
    <glyph glyph-name="M" unicode="M" horiz-adv-x="827" 
d="M64 0v700h152l199 -452l196 452h152v-700h-128v472l-171 -383h-101l-171 383v-472h-128z" />
    <glyph glyph-name="N" unicode="N" horiz-adv-x="713" 
d="M64 0v700h128l329 -489v489h128v-700h-128l-329 488v-488h-128z" />
    <glyph glyph-name="O" unicode="O" horiz-adv-x="797" 
d="M398 -12q-70 0 -134.5 25t-114.5 72t-79 114t-29 151t29 151t79 114t114.5 72t134.5 25q71 0 135.5 -25t114.5 -72t79 -114t29 -151t-29 -151t-79 -114t-114.5 -72t-135.5 -25zM398 104q56 0 108 26.5t85 81.5t33 138q0 84 -33 139t-85 81.5t-108 26.5q-55 0 -107 -26.5
t-85 -81.5t-33 -139q0 -83 33 -138t85 -81.5t107 -26.5z" />
    <glyph glyph-name="P" unicode="P" horiz-adv-x="599" 
d="M64 0v700h259q73 0 128.5 -24.5t87.5 -71.5t32 -114t-32 -114.5t-87.5 -72t-128.5 -24.5h-131v-279h-128zM192 388h128q67 0 94 28.5t27 73.5q0 44 -27 72.5t-94 28.5h-128v-203z" />
    <glyph glyph-name="Q" unicode="Q" horiz-adv-x="802" 
d="M683 -12l-70 68q-46 -33 -101 -50.5t-114 -17.5q-70 0 -134.5 25t-114.5 72t-79 114t-29 151t29 151t79 114t114.5 72t134.5 25q71 0 135.5 -25t114.5 -72t79 -114t29 -151q0 -61 -15.5 -113t-44.5 -94l71 -67zM173 350q0 -83 33 -138t85 -81.5t107 -26.5q38 0 70 8.5
t59 26.5l-108 104l84 88l101 -99q10 23 15 51t5 67q0 84 -33 139t-85 81.5t-108 26.5q-55 0 -107 -26.5t-85 -81.5t-33 -139z" />
    <glyph glyph-name="R" unicode="R" horiz-adv-x="615" 
d="M64 0v700h243q73 0 126.5 -23.5t83.5 -68.5t30 -110q0 -75 -40 -120t-109 -62l195 -316h-151l-172 295h-78v-295h-128zM192 404h112q45 0 69.5 12.5t34 33.5t9.5 48t-9.5 48t-34 33t-69.5 12h-112v-187z" />
    <glyph glyph-name="S" unicode="S" horiz-adv-x="589" 
d="M303 -12q-73 0 -132.5 25t-94.5 74.5t-37 123.5h135q2 -49 35.5 -82t92.5 -33q51 0 81 24t30 65q0 21 -6.5 37t-24.5 30t-50.5 27.5t-85.5 30.5q-69 23 -111 53t-60.5 67.5t-18.5 81.5q0 66 31.5 110.5t85 67t118.5 22.5q66 0 119.5 -23t86.5 -68t34 -111h-137
q-1 38 -29.5 66t-78.5 28q-40 0 -68 -21t-28 -62q0 -30 22.5 -51t61 -36.5t85.5 -32.5q26 -9 58.5 -23t62.5 -37.5t49.5 -59t19.5 -87.5q0 -64 -32.5 -110t-88 -71t-125.5 -25z" />
    <glyph glyph-name="T" unicode="T" horiz-adv-x="582" 
d="M227 0v591h-204v109h537v-109h-205v-591h-128z" />
    <glyph glyph-name="U" unicode="U" horiz-adv-x="673" 
d="M334 -12q-96 0 -156.5 38.5t-89 102.5t-28.5 139v432h128v-433q0 -82 39.5 -122t109.5 -40q69 0 109 40t40 122v433h128v-432q0 -79 -25 -133t-66.5 -86t-91 -46.5t-97.5 -14.5z" />
    <glyph glyph-name="V" unicode="V" horiz-adv-x="691" 
d="M267 0l-256 700h137l198 -569l199 569h135l-256 -700h-157z" />
    <glyph glyph-name="W" unicode="W" horiz-adv-x="997" 
d="M261 0l-243 700h131l189 -579l75 234l-121 345h129l78 -245l77 245h130l-122 -345l75 -234l189 579h131l-243 -700h-152l-85 254l-86 -254h-152z" />
    <glyph glyph-name="X" unicode="X" horiz-adv-x="651" 
d="M29 0l222 381l-190 319h145l121 -203l113 203h145l-187 -319l227 -381h-145l-157 264l-149 -264h-145z" />
    <glyph glyph-name="Y" unicode="Y" horiz-adv-x="617" 
d="M245 0v281l-235 419h145l155 -291l154 291h143l-234 -419v-281h-128z" />
    <glyph glyph-name="Z" unicode="Z" horiz-adv-x="558" 
d="M43 0v98l321 494h-318v108h467v-98l-323 -493h325v-109h-472z" />
    <glyph glyph-name="bracketleft" unicode="[" horiz-adv-x="360" 
d="M68 -170v981h238v-104h-118v-772h118v-105h-238z" />
    <glyph glyph-name="backslash" unicode="\" horiz-adv-x="421" 
d="M273 -111l-250 888h125l250 -888h-125z" />
    <glyph glyph-name="bracketright" unicode="]" horiz-adv-x="360" 
d="M54 -170v105h118v772h-118v104h238v-981h-238z" />
    <glyph glyph-name="asciicircum" unicode="^" horiz-adv-x="665" 
d="M33 170l239 530h122l238 -530h-130l-169 379l-170 -379h-130z" />
    <glyph glyph-name="underscore" unicode="_" horiz-adv-x="681" 
d="M54 -160v122h573v-122h-573z" />
    <glyph glyph-name="grave" unicode="`" horiz-adv-x="500" 
d="M347 539l-226 108v104l226 -122v-90z" />
    <glyph glyph-name="a" unicode="a" horiz-adv-x="555" 
d="M197 -12q-44 0 -82 18t-61.5 51.5t-23.5 79.5q0 55 27 90t74.5 52t106.5 17h118q0 34 -10.5 57t-31 35.5t-50.5 12.5q-35 0 -62.5 -15.5t-33.5 -51.5h-128q5 54 37 93t82 60t107 21q70 0 118.5 -26t74.5 -73.5t26 -112.5v-151q2 -22 16 -30t37 -8v-107q-47 0 -78.5 9
t-51.5 26.5t-34 44.5q-23 -39 -71.5 -65.5t-105.5 -26.5zM234 91q33 0 60.5 15t44.5 42t17 62v4h-110q-22 0 -42 -6.5t-32 -20t-12 -36.5q0 -31 21.5 -45.5t52.5 -14.5z" />
    <glyph glyph-name="b" unicode="b" horiz-adv-x="598" 
d="M339 -12q-50 0 -93.5 19.5t-72.5 60.5v-68h-128v700h127v-274q28 41 72 61.5t95 20.5q71 0 122.5 -34.5t79.5 -93t28 -130.5q0 -71 -28 -131t-79.5 -95.5t-122.5 -35.5zM305 100q40 0 70 20t47 54.5t17 75.5q0 47 -18.5 79.5t-49 49.5t-66.5 17q-39 0 -68.5 -19
t-46.5 -52.5t-17 -76.5q0 -44 17.5 -77.5t47.5 -52t67 -18.5z" />
    <glyph glyph-name="c" unicode="c" horiz-adv-x="544" 
d="M278 -12q-75 0 -131 33.5t-87 92t-31 134.5q0 75 30.5 134t86.5 92.5t132 33.5q90 0 152.5 -45t84.5 -133h-137q-9 29 -34.5 49.5t-66.5 20.5t-67 -21t-38.5 -55.5t-12.5 -75.5t12.5 -75.5t38.5 -55t67 -20.5q39 0 64 17.5t37 51.5h137q-13 -56 -46.5 -96t-82 -61
t-108.5 -21z" />
    <glyph glyph-name="d" unicode="d" horiz-adv-x="598" 
d="M259 -12q-72 0 -123.5 35.5t-79 95t-27.5 131.5t28 130.5t80 93t122 34.5q48 0 91.5 -20t73.5 -58v270h129v-700h-129v71q-25 -41 -70 -62t-95 -21zM292 100q40 0 69.5 19t46.5 52.5t17 76.5q0 53 -21 85.5t-52 47.5t-61 15q-39 0 -68.5 -19t-46.5 -51.5t-17 -75.5
q0 -42 17 -76t47 -54t69 -20z" />
    <glyph glyph-name="e" unicode="e" horiz-adv-x="553" 
d="M282 -12q-78 0 -134.5 34t-87.5 93t-31 133q0 79 32 137t89 90.5t132 32.5q74 0 129.5 -32t87 -88t31.5 -129q0 -13 -1 -25.5t-3 -23.5h-368q3 -35 18.5 -61.5t42 -41t60.5 -14.5q35 0 60.5 15t40.5 46h137q-14 -44 -45 -82t-78.5 -61t-111.5 -23zM159 295h239
q-1 50 -36.5 79t-83.5 29q-41 0 -76 -25.5t-43 -82.5z" />
    <glyph glyph-name="f" unicode="f" horiz-adv-x="309" 
d="M58 0v389h-58v107h58v38q0 90 45.5 128t123.5 38h42v-109h-22q-33 0 -47 -13t-14 -44v-38h89v-107h-89v-389h-128z" />
    <glyph glyph-name="g" unicode="g" horiz-adv-x="527" 
d="M264 -232q-68 0 -122 15t-85.5 48.5t-31.5 87.5q0 35 15 60.5t46 44.5q-26 15 -39 38t-13 53q0 66 62 102q-22 23 -34 52.5t-12 61.5q0 54 26 93.5t72 61.5t105 22q43 0 79 -12h178v-96h-69q6 -17 10.5 -34t4.5 -35q0 -52 -27 -92t-72.5 -62.5t-103.5 -22.5
q-25 0 -46 4.5t-41 14.5q-22 -11 -22 -35q0 -44 73 -44h91q60 0 102.5 -16.5t64.5 -51.5t22 -89q0 -52 -31 -90t-84 -58.5t-118 -20.5zM264 -132q48 0 81.5 15.5t33.5 46.5q0 59 -82 59h-72q-40 0 -61.5 -15t-21.5 -44q0 -23 17 -36.5t45 -19.5t60 -6zM252 254
q38 0 62.5 21.5t24.5 55.5q0 33 -24.5 55t-62.5 22t-61.5 -22t-23.5 -55q0 -34 22.5 -55.5t62.5 -21.5z" />
    <glyph glyph-name="h" unicode="h" horiz-adv-x="562" 
d="M45 0v700h127v-262q26 35 69.5 52.5t87.5 17.5q86 0 141 -55.5t55 -160.5v-292h-127v275q0 56 -28.5 90.5t-83.5 34.5t-84.5 -34.5t-29.5 -90.5v-275h-127z" />
    <glyph glyph-name="i" unicode="i" horiz-adv-x="227" 
d="M114 560q-34 0 -58.5 24.5t-24.5 58.5q0 35 24.5 59t58.5 24q35 0 59 -24t24 -59q0 -34 -24 -58.5t-59 -24.5zM50 0v496h128v-496h-128z" />
    <glyph glyph-name="j" unicode="j" horiz-adv-x="228" 
d="M-37 -220v109h27q32 0 46.5 13t14.5 44v550h128v-550q0 -62 -22 -98.5t-60 -52t-87 -15.5h-47zM116 560q-35 0 -59 24.5t-24 58.5q0 35 24 59t59 24t59 -24t24 -59q0 -34 -24 -58.5t-59 -24.5z" />
    <glyph glyph-name="k" unicode="k" horiz-adv-x="523" 
d="M45 0v700h128v-414l165 210h165l-218 -249l221 -247h-165l-168 211v-211h-128z" />
    <glyph glyph-name="l" unicode="l" horiz-adv-x="219" 
d="M45 0v700h128v-700h-128z" />
    <glyph glyph-name="m" unicode="m" horiz-adv-x="906" 
d="M45 0v496h127v-57q25 35 64 52t82 17q56 0 104.5 -23.5t75.5 -73.5q25 46 69.5 71.5t97.5 25.5q57 0 103.5 -23.5t73.5 -71.5t27 -120v-293h-127v275q0 56 -27 89t-83 33q-55 0 -83 -33t-28 -89v-275h-127v275q0 57 -28.5 89.5t-81.5 32.5q-45 0 -78.5 -28.5t-33.5 -93.5
v-275h-127z" />
    <glyph glyph-name="n" unicode="n" horiz-adv-x="562" 
d="M45 0v496h127v-58q26 35 69.5 52.5t87.5 17.5q86 0 141 -55.5t55 -160.5v-292h-127v275q0 56 -28.5 90.5t-83.5 34.5t-84.5 -34.5t-29.5 -90.5v-275h-127z" />
    <glyph glyph-name="o" unicode="o" horiz-adv-x="582" 
d="M287 -12q-75 0 -133.5 32.5t-91.5 91.5t-33 136q0 81 35.5 139.5t95 89.5t131.5 31q75 0 134 -32.5t93.5 -90.5t34.5 -137q0 -75 -34 -134t-93.5 -92.5t-138.5 -33.5zM289 99q40 0 69.5 20.5t46.5 55t17 75.5q0 47 -18.5 80t-48.5 50t-66 17q-39 0 -68.5 -19t-46 -52.5
t-16.5 -77.5t17.5 -78t47.5 -52.5t66 -18.5z" />
    <glyph glyph-name="p" unicode="p" horiz-adv-x="598" 
d="M45 -220v716h127v-69q29 40 72.5 60.5t94.5 20.5q72 0 123.5 -35t79 -93.5t27.5 -129.5t-28 -131t-79.5 -95.5t-122.5 -35.5q-63 0 -104.5 26t-61.5 54v-288h-128zM305 100q40 0 70 20.5t47 54.5t17 75q0 47 -18.5 79.5t-49 49.5t-66.5 17q-38 0 -68 -19t-47.5 -52.5
t-17.5 -76.5q0 -41 17 -75t47 -53.5t69 -19.5z" />
    <glyph glyph-name="q" unicode="q" horiz-adv-x="599" 
d="M426 -220v285q-19 -25 -60.5 -50.5t-103.5 -25.5q-67 0 -119 34t-82 93t-32 133q0 72 30 130.5t83.5 93t121.5 34.5q48 0 91 -18.5t71 -54.5v62h128v-716h-128zM292 100q33 0 64 16.5t50.5 49.5t19.5 82q0 43 -17.5 76t-47.5 52.5t-69 19.5t-69 -20t-46.5 -53t-16.5 -74
q0 -42 17 -76t46.5 -53.5t68.5 -19.5z" />
    <glyph glyph-name="r" unicode="r" horiz-adv-x="342" 
d="M45 0v496h127v-74q26 42 66 64t89 22v-134h-34q-61 0 -91 -29t-30 -97v-248h-127z" />
    <glyph glyph-name="s" unicode="s" horiz-adv-x="474" 
d="M248 -12q-56 0 -105 20.5t-80.5 58.5t-34.5 89h128q5 -32 31.5 -50t59.5 -18q28 0 52.5 12.5t24.5 39.5q0 21 -18 33t-42 19t-44 12q-50 12 -91 28.5t-65 46t-24 78.5q0 48 27.5 82t73 51.5t98.5 17.5q83 0 140 -42t62 -124h-121q-3 32 -26.5 48.5t-58.5 16.5
q-28 0 -50 -10t-22 -38q0 -20 18 -32.5t43 -20t44 -12.5q52 -13 91.5 -30t62.5 -46t24 -78q0 -49 -27.5 -83t-72.5 -51.5t-98 -17.5z" />
    <glyph glyph-name="t" unicode="t" horiz-adv-x="351" 
d="M240 0q-80 0 -120.5 39t-40.5 117v233h-64v107h64v121h128v-121h113v-107h-113v-234q0 -28 15 -38t39 -10h59v-107h-80z" />
    <glyph glyph-name="u" unicode="u" horiz-adv-x="562" 
d="M239 -12q-64 0 -109 27.5t-69 76t-24 110.5v294h127v-275q0 -55 28.5 -90t83.5 -35q57 0 85 34t28 91v275h128v-496h-128v58q-25 -34 -65.5 -52t-84.5 -18z" />
    <glyph glyph-name="v" unicode="v" horiz-adv-x="524" 
d="M185 0l-186 496h136l128 -381l127 381h135l-186 -496h-154z" />
    <glyph glyph-name="w" unicode="w" horiz-adv-x="747" 
d="M145 0l-148 496h129l89 -377l96 377h135l94 -376l89 376h122l-147 -495h-137l-92 346l-92 -347h-138z" />
    <glyph glyph-name="x" unicode="x" horiz-adv-x="472" 
d="M0 0l164 249l-166 247h144l102 -153l93 153h136l-165 -247l167 -249h-143l-104 154l-92 -154h-136z" />
    <glyph glyph-name="y" unicode="y" horiz-adv-x="535" 
d="M91 -220l109 243l-201 473h143l128 -338l131 338h135l-310 -716h-135z" />
    <glyph glyph-name="z" unicode="z" horiz-adv-x="413" 
d="M22 0v103l220 289h-219v104h365v-102l-221 -289h224v-105h-369z" />
    <glyph glyph-name="braceleft" unicode="{" horiz-adv-x="462" 
d="M338 -173q-77 0 -124 42t-47 124q0 33 5 60.5t10.5 56.5t5.5 64q0 34 -21.5 60.5t-77.5 33.5v103q56 7 77.5 32.5t21.5 61.5q0 38 -5.5 65t-10.5 54t-5 62q0 81 47 123t124 42h63v-106h-39q-36 0 -54 -18t-18 -53q0 -19 2.5 -38.5t7.5 -39.5t7 -44t2 -52q0 -53 -26 -90.5
t-83 -49.5v-2q57 -12 83 -49.5t26 -90.5q0 -28 -2 -51.5t-7 -43.5t-7.5 -39.5t-2.5 -39.5q0 -35 18 -53t54 -18h39v-106h-63z" />
    <glyph glyph-name="bar" unicode="|" horiz-adv-x="264" 
d="M68 -100v820h128v-820h-128z" />
    <glyph glyph-name="braceright" unicode="}" horiz-adv-x="462" 
d="M61 -173v106h39q36 0 54 18t18 53q0 20 -2 39.5t-7 39.5t-7.5 43.5t-2.5 51.5q0 53 26 90.5t83 49.5v2q-57 12 -83 49.5t-26 90.5q0 28 2.5 52t7.5 44t7 39.5t2 38.5q0 35 -18 53t-54 18h-39v106h63q77 0 124 -42t47 -123q0 -35 -5 -62t-10.5 -54t-5.5 -65
q0 -36 21.5 -61.5t77.5 -32.5v-103q-56 -7 -77.5 -33.5t-21.5 -60.5q0 -35 5.5 -64t10.5 -56.5t5 -60.5q0 -82 -47 -124t-124 -42h-63z" />
    <glyph glyph-name="asciitilde" unicode="~" horiz-adv-x="600" 
d="M387 228q-29 0 -52.5 10t-44 23.5t-41 23.5t-43.5 10q-28 0 -44 -16.5t-21 -49.5h-95q16 94 60 136.5t107 42.5q29 0 53 -10t44.5 -23t41 -23t43.5 -10q26 0 43 17t21 49h96q-15 -94 -59 -137t-109 -43z" />
    <glyph glyph-name="uni00A0" unicode="&#xa0;" horiz-adv-x="238" 
 />
    <glyph glyph-name="exclamdown" unicode="&#xa1;" horiz-adv-x="296" 
d="M78 -139l14 479h108l15 -479h-137zM148 407q-35 0 -59 24.5t-24 58.5q0 35 24 59t59 24t59 -24t24 -59q0 -34 -24 -58.5t-59 -24.5z" />
    <glyph glyph-name="cent" unicode="&#xa2;" horiz-adv-x="600" 
d="M247 -104v98q-59 13 -103.5 48.5t-69.5 87.5q-13 26 -19 55.5t-6 62.5q0 65 25 118t70 88q22 17 48 29t55 19v98h118v-97q73 -14 122 -61t64 -120h-135q-10 36 -39.5 56.5t-69.5 20.5q-35 0 -64 -18t-46 -51.5t-17 -81.5q0 -47 17 -81t46 -52t64 -18q40 0 69.5 20
t39.5 57h135q-15 -71 -64 -119t-122 -62v-97h-118z" />
    <glyph glyph-name="sterling" unicode="&#xa3;" horiz-adv-x="621" 
d="M76 0v75q26 26 44 52.5t27.5 59t9.5 76.5q0 8 -0.5 17t-2.5 18h-114v88h86q-9 26 -15.5 54t-6.5 59q0 69 29.5 116.5t81 72t116.5 24.5q58 0 100.5 -17t70.5 -47t43 -69t17 -83h-118q-2 47 -30 78.5t-81 31.5q-29 0 -54 -12t-39.5 -36.5t-14.5 -62.5q0 -26 8 -53.5
t18 -55.5h187v-88h-163q2 -9 2.5 -18t0.5 -17q0 -41 -16 -83t-53 -78h356v-102h-489z" />
    <glyph glyph-name="currency" unicode="&#xa4;" horiz-adv-x="555" 
d="M115 81l-52 53l57 57q-33 44 -33 107q0 31 8.5 58t25.5 49l-58 59l52 52l63 -63q43 22 101 22q56 0 99 -22l62 63l52 -52l-57 -58q17 -22 26 -49t9 -59q0 -31 -8.5 -58t-25.5 -50l56 -56l-52 -53l-61 61q-46 -23 -101 -23q-58 0 -102 23zM278 201q21 0 40.5 10t32 31
t12.5 55q0 51 -26.5 74t-58.5 23q-33 0 -58.5 -23t-25.5 -74t25.5 -73.5t58.5 -22.5z" />
    <glyph glyph-name="yen" unicode="&#xa5;" horiz-adv-x="641" 
d="M257 0v150h-200v88h200v11l-34 65h-166v88h120l-156 298h145l155 -334l155 334h144l-155 -298h120v-89h-166l-34 -64v-11h200v-88h-200v-150h-128z" />
    <glyph glyph-name="brokenbar" unicode="&#xa6;" horiz-adv-x="264" 
d="M68 394v326h128v-326h-128zM68 -100v326h128v-326h-128z" />
    <glyph glyph-name="section" unicode="&#xa7;" horiz-adv-x="609" 
d="M301 -232q-67 0 -121 24.5t-85.5 69.5t-33.5 108h137q1 -23 13 -44.5t35 -35.5t57 -14q25 0 47 8.5t36.5 26.5t14.5 48q0 38 -23 55.5t-58 30.5q-19 6 -41 13t-46 15q-49 17 -92.5 42.5t-70.5 65.5t-27 99q0 81 56 137q-27 39 -27 95q-1 62 29.5 107t84.5 69t121 24
q68 0 121.5 -24t85.5 -69t33 -109h-137q-1 20 -11 42t-32.5 37t-61.5 15q-41 2 -70 -20t-29 -63q0 -35 22 -54t60 -31q19 -7 40.5 -14t46.5 -15q26 -9 49.5 -19.5t45.5 -23.5t39 -29t30 -36q26 -41 26 -99q0 -19 -3.5 -38t-10.5 -36q-13 -36 -42 -63q27 -39 27 -95
q0 -65 -32 -109.5t-85 -67.5t-118 -23zM408 134q21 23 21 57q0 27 -11 44.5t-29.5 30t-41.5 22.5q-13 6 -30.5 12.5t-35 12.5t-32.5 11.5t-23 9.5q-7 3 -13.5 6t-12.5 6q-21 -22 -21 -57q0 -26 11 -44.5t29.5 -31t40.5 -21.5q17 -7 42 -16.5t49 -19t40.5 -16z" />
    <glyph glyph-name="dieresis" unicode="&#xa8;" horiz-adv-x="500" 
d="M160 560q-35 0 -59 24t-24 59t24 59t59 24t59 -24t24 -59t-24 -59t-59 -24zM382 560q-35 0 -59 24t-24 59t24 59t59 24t59 -24t24 -59t-24 -59t-59 -24z" />
    <glyph glyph-name="copyright" unicode="&#xa9;" horiz-adv-x="786" 
d="M393 -6q-103 0 -181.5 46t-122.5 127q-45 80 -45 185q0 104 44.5 184.5t123.5 126.5q78 45 181 45q104 0 182.5 -45.5t122.5 -125.5q44 -82 44 -185q0 -105 -44 -185.5t-122 -126.5q-79 -46 -183 -46zM394 123q-62 0 -111.5 27.5t-78.5 79.5t-29 122q0 71 28.5 122
t78.5 79q25 14 53 21t59 7q77 0 133.5 -42t73.5 -117h-112q-11 33 -36.5 51.5t-61.5 18.5q-47 0 -78.5 -35t-31.5 -105t31.5 -105.5t78.5 -35.5q38 0 62 19t36 51h112q-17 -72 -73.5 -115t-133.5 -43zM393 41q93 0 160 39t104 109q36 71 36 163q0 93 -36.5 163t-103.5 109
q-34 19 -73.5 28.5t-86.5 9.5q-92 0 -159 -38.5t-103 -108.5q-37 -70 -37 -163t36.5 -163t103.5 -109q68 -39 159 -39z" />
    <glyph glyph-name="ordfeminine" unicode="&#xaa;" horiz-adv-x="404" 
d="M146 347q-28 0 -55 12t-44.5 35t-17.5 56q0 40 20 64.5t53 35.5t72 11h83q-1 32 -17.5 53t-48.5 21q-23 0 -40 -12t-23 -35h-89q8 39 29.5 66.5t53.5 41.5t72 14q30 0 57.5 -9t49 -27.5t34 -47t12.5 -67.5v-95q0 -18 10.5 -26.5t26.5 -8.5v-75h-17q-35 0 -61 13t-39 39
q-20 -29 -50.5 -44t-70.5 -15zM172 418q23 0 42 10.5t31 30t12 45.5h-77q-22 0 -41 -10t-19 -34q0 -22 15 -32t37 -10z" />
    <glyph glyph-name="guillemotleft" unicode="&#xab;" horiz-adv-x="505" 
d="M334 120l-90 175l90 175h121l-93 -175l93 -175h-121zM133 120l-91 175l91 175h120l-93 -175l93 -175h-120z" />
    <glyph glyph-name="logicalnot" unicode="&#xac;" horiz-adv-x="600" 
d="M429 201v137h-385v99h513v-236h-128z" />
    <glyph glyph-name="registered" unicode="&#xae;" horiz-adv-x="367" 
d="M184 425q-39 0 -72 19.5t-52.5 52t-19.5 71.5q0 40 19.5 72.5t52.5 52t72 19.5q40 0 72 -19.5t51.5 -52t19.5 -72.5q0 -39 -19.5 -71.5t-51.5 -52t-72 -19.5zM117 496q1 2 7 13t14 24.5t14 24l6 10.5q-29 10 -29 39q0 15 10 29.5t38 14.5h54v-155h-28v65h-18l-5 -9.5
t-12 -22t-12.5 -22.5t-5.5 -11h-33zM184 448q33 0 60.5 16.5t43.5 43.5t16 60t-16 60.5t-43.5 43.5t-60.5 16t-60 -16t-43.5 -43.5t-16.5 -60.5t16.5 -60t43.5 -43.5t60 -16.5zM184 585h19v43h-22q-25 0 -25 -21q0 -11 8 -16.5t20 -5.5z" />
    <glyph glyph-name="macron" unicode="&#xaf;" horiz-adv-x="500" 
d="M73 599v91h354v-91h-354z" />
    <glyph glyph-name="degree" unicode="&#xb0;" horiz-adv-x="360" 
d="M180 426q-39 0 -71.5 17.5t-52.5 49.5t-20 76t20 76t52.5 49.5t71.5 17.5q62 0 103.5 -38.5t41.5 -104.5t-41.5 -104.5t-103.5 -38.5zM180 508q25 0 42.5 17t17.5 44q0 28 -17.5 44.5t-42.5 16.5q-24 0 -41 -16.5t-17 -44.5q0 -27 17 -44t41 -17z" />
    <glyph glyph-name="plusminus" unicode="&#xb1;" horiz-adv-x="600" 
d="M246 154v128h-192v107h192v127h109v-127h192v-107h-192v-128h-109zM54 0v112h493v-112h-493z" />
    <glyph glyph-name="uni00B2" unicode="&#xb2;" horiz-adv-x="311" 
d="M30 347v55q19 20 33.5 35t25.5 26.5t19 20t14.5 15l12.5 12.5q25 26 42 46.5t17 37.5q0 20 -11 31.5t-31 11.5q-25 0 -35.5 -16.5t-10.5 -35.5h-75q2 57 35 88t87 31q53 0 84.5 -28t31.5 -81q0 -36 -20.5 -63t-51.5 -58l-59 -60h140v-68h-248z" />
    <glyph glyph-name="uni00B3" unicode="&#xb3;" horiz-adv-x="316" 
d="M159 342q-57 0 -93 30t-36 87h75q0 -22 14.5 -35.5t39.5 -13.5t39 13t14 38q0 24 -15.5 36.5t-37.5 12.5q-8 0 -17 -2.5t-20 -9.5l-43 50l93 84h-132v68h235v-62l-76 -69q40 -8 63.5 -37t23.5 -70q0 -55 -34.5 -87.5t-92.5 -32.5z" />
    <glyph glyph-name="acute" unicode="&#xb4;" horiz-adv-x="500" 
d="M137 539v90l226 122v-104z" />
    <glyph glyph-name="uni00B5" unicode="&#xb5;" horiz-adv-x="617" 
d="M65 -220v716h128v-268q0 -64 26.5 -98t81.5 -34q54 0 88 38t34 106v256h128v-496h-112l-10 84q-24 -44 -67 -70t-102 -26q-20 0 -36.5 4t-30.5 12v-224h-128z" />
    <glyph glyph-name="paragraph" unicode="&#xb6;" horiz-adv-x="641" 
d="M285 -100v383h-17q-83 0 -135 28.5t-77 76.5q-13 23 -19 49t-6 54q0 56 25.5 103.5t77.5 76.5q26 14 59.5 21.5t74.5 7.5h305v-800h-108v702h-72v-702h-108z" />
    <glyph glyph-name="periodcentered" unicode="&#xb7;" horiz-adv-x="240" 
d="M120 255q-35 0 -59 24.5t-24 58.5q0 35 24 59t59 24t59 -24t24 -59q0 -34 -24 -58.5t-59 -24.5z" />
    <glyph glyph-name="cedilla" unicode="&#xb8;" horiz-adv-x="500" 
d="M120 -263v74h112q53 0 53 36q0 35 -53 35h-61v135h80v-67q35 1 64.5 -10.5t47.5 -35t18 -59.5t-18 -60t-47.5 -36t-64.5 -12h-131z" />
    <glyph glyph-name="uni00B9" unicode="&#xb9;" horiz-adv-x="306" 
d="M40 347v68h90v199l-87 -20v62l120 44h41v-285h80v-68h-244z" />
    <glyph glyph-name="ordmasculine" unicode="&#xba;" horiz-adv-x="419" 
d="M207 349q-51 0 -91 22.5t-63.5 63.5t-23.5 96q0 58 25 98t66 61.5t90 21.5q51 0 91.5 -22.5t64.5 -63t24 -95.5q0 -51 -22.5 -92.5t-63.5 -65.5t-97 -24zM207 426q30 0 50.5 14t31 38t10.5 53q0 44 -23 74t-67 30q-29 0 -49 -14t-30.5 -37.5t-10.5 -52.5
q0 -44 23.5 -74.5t64.5 -30.5z" />
    <glyph glyph-name="guillemotright" unicode="&#xbb;" horiz-adv-x="505" 
d="M252 120l93 175l-93 175h121l90 -175l-90 -175h-121zM50 120l93 175l-93 175h121l90 -175l-90 -175h-121z" />
    <glyph glyph-name="onequarter" unicode="&#xbc;" horiz-adv-x="765" 
d="M80 0l520 700h98l-520 -700h-98zM35 347v68h90v199l-87 -20v62l120 44h41v-285h80v-68h-244zM608 0v63h-164v59l116 231h78l-109 -221h83v88h73v-88h39v-69h-39v-63h-77z" />
    <glyph glyph-name="onehalf" unicode="&#xbd;" horiz-adv-x="770" 
d="M35 347v68h90v199l-87 -20v62l120 44h41v-285h80v-68h-244zM86 0l520 700h98l-520 -700h-98zM477 0v55l105 109q25 26 42 46.5t17 37.5q0 20 -11 31.5t-31 11.5q-25 0 -35.5 -16.5t-10.5 -35.5h-75q2 57 35 88t87 31q53 0 84.5 -28t31.5 -81q0 -36 -20.5 -63t-51.5 -58
l-59 -60h140v-68h-248z" />
    <glyph glyph-name="threequarters" unicode="&#xbe;" horiz-adv-x="775" 
d="M90 0l520 700h98l-520 -700h-98zM618 0v63h-164v59l116 231h78l-109 -221h83v88h73v-88h39v-69h-39v-63h-77zM169 342q-57 0 -93 30t-36 87h75q0 -22 14.5 -35.5t39.5 -13.5t39 13t14 38q0 24 -15.5 36.5t-37.5 12.5q-8 0 -17 -2.5t-20 -9.5l-43 50l93 84h-132v68h235
v-62l-76 -69q40 -8 63.5 -37t23.5 -70q0 -55 -34.5 -87.5t-92.5 -32.5z" />
    <glyph glyph-name="questiondown" unicode="&#xbf;" horiz-adv-x="527" 
d="M268 -156q-67 0 -118.5 25t-81.5 71q-29 49 -29 114q0 69 30.5 114t82.5 67q26 11 57 16.5t65 6.5l3 80h113l4 -165h-46q-51 0 -93 -9t-67 -35q-25 -25 -25 -76q0 -48 29 -75.5t77 -27.5q50 0 78 27.5t28 74.5h121q1 -60 -26 -107t-79 -74q-51 -27 -123 -27zM333 402
q-34 0 -58.5 24.5t-24.5 58.5q0 35 24.5 59t58.5 24q35 0 59 -24t24 -59q0 -34 -24 -58.5t-59 -24.5z" />
    <glyph glyph-name="Agrave" unicode="&#xc0;" horiz-adv-x="694" 
d="M19 0l256 700h144l256 -700h-136l-55 159h-275l-56 -159h-134zM245 262h203l-102 291zM460 740l-226 108v104l226 -122v-90z" />
    <glyph glyph-name="Aacute" unicode="&#xc1;" horiz-adv-x="694" 
d="M19 0l256 700h144l256 -700h-136l-55 159h-275l-56 -159h-134zM245 262h203l-102 291zM234 740v90l226 122v-104z" />
    <glyph glyph-name="Acircumflex" unicode="&#xc2;" horiz-adv-x="694" 
d="M19 0l256 700h144l256 -700h-136l-55 159h-275l-56 -159h-134zM245 262h203l-102 291zM201 747v92l146 80l146 -80v-92l-146 82z" />
    <glyph glyph-name="Atilde" unicode="&#xc3;" horiz-adv-x="694" 
d="M19 0l256 700h144l256 -700h-136l-55 159h-275l-56 -159h-134zM245 262h203l-102 291zM405 752q-27 0 -46 11.5t-36 23t-41 11.5q-35 0 -43 -45h-68q10 64 40.5 94t76.5 30q28 0 46.5 -11.5t36 -23t40.5 -11.5q17 0 28.5 11t14.5 34h68q-9 -64 -40.5 -94t-76.5 -30z" />
    <glyph glyph-name="Adieresis" unicode="&#xc4;" horiz-adv-x="694" 
d="M19 0l256 700h144l256 -700h-136l-55 159h-275l-56 -159h-134zM245 262h203l-102 291zM236 768q-35 0 -59 24t-24 59t24 59t59 24t59 -24t24 -59t-24 -59t-59 -24zM458 768q-35 0 -59 24t-24 59t24 59t59 24t59 -24t24 -59t-24 -59t-59 -24z" />
    <glyph glyph-name="Aring" unicode="&#xc5;" horiz-adv-x="694" 
d="M19 0l256 700h144l256 -700h-136l-55 159h-275l-56 -159h-134zM245 262h203l-102 291zM346 751q-46 0 -79.5 30t-33.5 82t33.5 82t79.5 30q48 0 81.5 -30t33.5 -82t-33.5 -82t-81.5 -30zM346 809q23 0 38 15t15 39q0 25 -15 39.5t-38 14.5q-21 0 -36 -14.5t-15 -39.5
q0 -24 15 -39t36 -15z" />
    <glyph glyph-name="AE" unicode="&#xc6;" horiz-adv-x="931" 
d="M19 0l379 700h483v-109h-271v-167h227v-109h-227v-206h271v-109h-399v136h-250l-74 -136h-139zM286 237h196v365z" />
    <glyph glyph-name="Ccedilla" unicode="&#xc7;" horiz-adv-x="729" 
d="M381 -12q-108 0 -184 47t-116 128.5t-40 185.5t39 186t115 129.5t186 47.5q126 0 206.5 -62.5t100.5 -175.5h-141q-13 57 -55.5 89.5t-112.5 32.5q-64 0 -110.5 -30t-71.5 -85t-25 -132q0 -76 25 -131.5t71.5 -85t110.5 -29.5q70 0 112.5 30.5t55.5 84.5h141
q-20 -108 -100.5 -169t-206.5 -61zM289 -263v74h112q53 0 53 36q0 35 -53 35h-61v135h80v-67q35 1 64.5 -10.5t47.5 -35t18 -59.5t-18 -60t-47.5 -36t-64.5 -12h-131z" />
    <glyph glyph-name="Egrave" unicode="&#xc8;" horiz-adv-x="562" 
d="M64 0v700h449v-109h-321v-167h275v-109h-275v-206h321v-109h-449zM394 740l-226 108v104l226 -122v-90z" />
    <glyph glyph-name="Eacute" unicode="&#xc9;" horiz-adv-x="562" 
d="M64 0v700h449v-109h-321v-167h275v-109h-275v-206h321v-109h-449zM168 740v90l226 122v-104z" />
    <glyph glyph-name="Ecircumflex" unicode="&#xca;" horiz-adv-x="562" 
d="M64 0v700h449v-109h-321v-167h275v-109h-275v-206h321v-109h-449zM135 747v92l146 80l146 -80v-92l-146 82z" />
    <glyph glyph-name="Edieresis" unicode="&#xcb;" horiz-adv-x="562" 
d="M64 0v700h449v-109h-321v-167h275v-109h-275v-206h321v-109h-449zM170 768q-35 0 -59 24t-24 59t24 59t59 24t59 -24t24 -59t-24 -59t-59 -24zM392 768q-35 0 -59 24t-24 59t24 59t59 24t59 -24t24 -59t-24 -59t-59 -24z" />
    <glyph glyph-name="Igrave" unicode="&#xcc;" horiz-adv-x="256" 
d="M64 0v700h128v-700h-128zM241 740l-226 108v104l226 -122v-90z" />
    <glyph glyph-name="Iacute" unicode="&#xcd;" horiz-adv-x="256" 
d="M64 0v700h128v-700h-128zM15 740v90l226 122v-104z" />
    <glyph glyph-name="Icircumflex" unicode="&#xce;" horiz-adv-x="256" 
d="M64 0v700h128v-700h-128zM-18 747v92l146 80l146 -80v-92l-146 82z" />
    <glyph glyph-name="Idieresis" unicode="&#xcf;" horiz-adv-x="256" 
d="M64 0v700h128v-700h-128zM17 768q-35 0 -59 24t-24 59t24 59t59 24t59 -24t24 -59t-24 -59t-59 -24zM239 768q-35 0 -59 24t-24 59t24 59t59 24t59 -24t24 -59t-24 -59t-59 -24z" />
    <glyph glyph-name="Eth" unicode="&#xd0;" horiz-adv-x="716" 
d="M77 0v295h-75v110h75v295h239q125 0 204.5 -44t117 -123t37.5 -183q0 -112 -41.5 -190.5t-121.5 -119t-196 -40.5h-239zM205 110h105q89 0 140 29t72.5 83t21.5 128q0 125 -57.5 183t-176.5 58h-105v-186h177v-110h-177v-185z" />
    <glyph glyph-name="Ntilde" unicode="&#xd1;" horiz-adv-x="713" 
d="M64 0v700h128l329 -489v489h128v-700h-128l-329 488v-488h-128zM415 752q-27 0 -46 11.5t-36 23t-41 11.5q-35 0 -43 -45h-68q10 64 40.5 94t76.5 30q28 0 46.5 -11.5t36 -23t40.5 -11.5q17 0 28.5 11t14.5 34h68q-9 -64 -40.5 -94t-76.5 -30z" />
    <glyph glyph-name="Ograve" unicode="&#xd2;" horiz-adv-x="797" 
d="M398 -12q-70 0 -134.5 25t-114.5 72t-79 114t-29 151t29 151t79 114t114.5 72t134.5 25q71 0 135.5 -25t114.5 -72t79 -114t29 -151t-29 -151t-79 -114t-114.5 -72t-135.5 -25zM398 104q56 0 108 26.5t85 81.5t33 138q0 84 -33 139t-85 81.5t-108 26.5q-55 0 -107 -26.5
t-85 -81.5t-33 -139q0 -83 33 -138t85 -81.5t107 -26.5zM512 740l-226 108v104l226 -122v-90z" />
    <glyph glyph-name="Oacute" unicode="&#xd3;" horiz-adv-x="797" 
d="M398 -12q-70 0 -134.5 25t-114.5 72t-79 114t-29 151t29 151t79 114t114.5 72t134.5 25q71 0 135.5 -25t114.5 -72t79 -114t29 -151t-29 -151t-79 -114t-114.5 -72t-135.5 -25zM398 104q56 0 108 26.5t85 81.5t33 138q0 84 -33 139t-85 81.5t-108 26.5q-55 0 -107 -26.5
t-85 -81.5t-33 -139q0 -83 33 -138t85 -81.5t107 -26.5zM286 740v90l226 122v-104z" />
    <glyph glyph-name="Ocircumflex" unicode="&#xd4;" horiz-adv-x="797" 
d="M398 -12q-70 0 -134.5 25t-114.5 72t-79 114t-29 151t29 151t79 114t114.5 72t134.5 25q71 0 135.5 -25t114.5 -72t79 -114t29 -151t-29 -151t-79 -114t-114.5 -72t-135.5 -25zM398 104q56 0 108 26.5t85 81.5t33 138q0 84 -33 139t-85 81.5t-108 26.5q-55 0 -107 -26.5
t-85 -81.5t-33 -139q0 -83 33 -138t85 -81.5t107 -26.5zM253 747v92l146 80l146 -80v-92l-146 82z" />
    <glyph glyph-name="Otilde" unicode="&#xd5;" horiz-adv-x="797" 
d="M398 -12q-70 0 -134.5 25t-114.5 72t-79 114t-29 151t29 151t79 114t114.5 72t134.5 25q71 0 135.5 -25t114.5 -72t79 -114t29 -151t-29 -151t-79 -114t-114.5 -72t-135.5 -25zM398 104q56 0 108 26.5t85 81.5t33 138q0 84 -33 139t-85 81.5t-108 26.5q-55 0 -107 -26.5
t-85 -81.5t-33 -139q0 -83 33 -138t85 -81.5t107 -26.5zM457 752q-27 0 -46 11.5t-36 23t-41 11.5q-35 0 -43 -45h-68q10 64 40.5 94t76.5 30q28 0 46.5 -11.5t36 -23t40.5 -11.5q17 0 28.5 11t14.5 34h68q-9 -64 -40.5 -94t-76.5 -30z" />
    <glyph glyph-name="Odieresis" unicode="&#xd6;" horiz-adv-x="797" 
d="M398 -12q-70 0 -134.5 25t-114.5 72t-79 114t-29 151t29 151t79 114t114.5 72t134.5 25q71 0 135.5 -25t114.5 -72t79 -114t29 -151t-29 -151t-79 -114t-114.5 -72t-135.5 -25zM398 104q56 0 108 26.5t85 81.5t33 138q0 84 -33 139t-85 81.5t-108 26.5q-55 0 -107 -26.5
t-85 -81.5t-33 -139q0 -83 33 -138t85 -81.5t107 -26.5zM288 768q-35 0 -59 24t-24 59t24 59t59 24t59 -24t24 -59t-24 -59t-59 -24zM510 768q-35 0 -59 24t-24 59t24 59t59 24t59 -24t24 -59t-24 -59t-59 -24z" />
    <glyph glyph-name="multiply" unicode="&#xd7;" horiz-adv-x="600" 
d="M176 89l-76 75l125 126l-122 122l76 76l122 -123l125 126l75 -76l-125 -125l123 -123l-76 -75l-122 123z" />
    <glyph glyph-name="Oslash" unicode="&#xd8;" horiz-adv-x="776" 
d="M391 -12q-59 0 -110 15t-92 43l-40 -46h-122l93 109q-38 46 -58.5 107.5t-20.5 133.5q0 105 43 187t121.5 128.5t185.5 46.5q57 0 107.5 -14.5t91.5 -41.5l38 44h122l-91 -105q40 -47 61 -109t21 -136q0 -105 -43 -186.5t-121.5 -128.5t-185.5 -47zM391 103q67 0 116 30
t76.5 85.5t27.5 131.5q0 43 -9 79.5t-27 67.5l-308 -359q53 -35 124 -35zM204 207l307 357q-51 33 -120 33q-66 0 -115.5 -30t-77 -85t-27.5 -132q0 -41 8.5 -77t24.5 -66z" />
    <glyph glyph-name="Ugrave" unicode="&#xd9;" horiz-adv-x="673" 
d="M334 -12q-96 0 -156.5 38.5t-89 102.5t-28.5 139v432h128v-433q0 -82 39.5 -122t109.5 -40q69 0 109 40t40 122v433h128v-432q0 -79 -25 -133t-66.5 -86t-91 -46.5t-97.5 -14.5zM450 740l-226 108v104l226 -122v-90z" />
    <glyph glyph-name="Uacute" unicode="&#xda;" horiz-adv-x="673" 
d="M334 -12q-96 0 -156.5 38.5t-89 102.5t-28.5 139v432h128v-433q0 -82 39.5 -122t109.5 -40q69 0 109 40t40 122v433h128v-432q0 -79 -25 -133t-66.5 -86t-91 -46.5t-97.5 -14.5zM224 740v90l226 122v-104z" />
    <glyph glyph-name="Ucircumflex" unicode="&#xdb;" horiz-adv-x="673" 
d="M334 -12q-96 0 -156.5 38.5t-89 102.5t-28.5 139v432h128v-433q0 -82 39.5 -122t109.5 -40q69 0 109 40t40 122v433h128v-432q0 -79 -25 -133t-66.5 -86t-91 -46.5t-97.5 -14.5zM191 747v92l146 80l146 -80v-92l-146 82z" />
    <glyph glyph-name="Udieresis" unicode="&#xdc;" horiz-adv-x="673" 
d="M334 -12q-96 0 -156.5 38.5t-89 102.5t-28.5 139v432h128v-433q0 -82 39.5 -122t109.5 -40q69 0 109 40t40 122v433h128v-432q0 -79 -25 -133t-66.5 -86t-91 -46.5t-97.5 -14.5zM226 768q-35 0 -59 24t-24 59t24 59t59 24t59 -24t24 -59t-24 -59t-59 -24zM448 768
q-35 0 -59 24t-24 59t24 59t59 24t59 -24t24 -59t-24 -59t-59 -24z" />
    <glyph glyph-name="Yacute" unicode="&#xdd;" horiz-adv-x="617" 
d="M245 0v281l-235 419h145l155 -291l154 291h143l-234 -419v-281h-128zM196 740v90l226 122v-104z" />
    <glyph glyph-name="Thorn" unicode="&#xde;" horiz-adv-x="599" 
d="M64 0v700h128v-135h131q84 0 139 -28.5t82 -76.5q27 -49 27 -111q0 -57 -26 -105.5t-81 -77.5q-55 -30 -141 -30h-131v-136h-128zM192 239h123q67 0 96.5 30t29.5 80q0 52 -29.5 81.5t-96.5 29.5h-123v-221z" />
    <glyph glyph-name="germandbls" unicode="&#xdf;" horiz-adv-x="667" 
d="M454 -10q-85 0 -146 45.5t-72 139.5h121q5 -42 30 -66t65 -24q35 0 57 16t22 50q0 27 -13 42.5t-34 25.5t-46 19q-36 13 -71.5 28.5t-59 40t-23.5 63.5q0 27 13 47t32 33q10 7 19 13t19 13q16 12 30 27.5t14 39.5q0 44 -34 63t-78 19q-43 0 -71 -15t-41 -43t-13 -68v-499
h-128v509q0 73 34 122.5t92.5 75t131.5 25.5q65 0 118 -20.5t84.5 -59.5t31.5 -96q0 -30 -12.5 -51t-31 -35.5t-37.5 -27.5q-14 -9 -29 -21.5t-15 -30.5q0 -15 10 -25.5t32.5 -20t59.5 -23.5q63 -23 102 -59t39 -103q0 -53 -26 -91t-71.5 -58t-104.5 -20z" />
    <glyph glyph-name="agrave" unicode="&#xe0;" horiz-adv-x="555" 
d="M197 -12q-44 0 -82 18t-61.5 51.5t-23.5 79.5q0 55 27 90t74.5 52t106.5 17h118q0 34 -10.5 57t-31 35.5t-50.5 12.5q-35 0 -62.5 -15.5t-33.5 -51.5h-128q5 54 37 93t82 60t107 21q70 0 118.5 -26t74.5 -73.5t26 -112.5v-151q2 -22 16 -30t37 -8v-107q-47 0 -78.5 9
t-51.5 26.5t-34 44.5q-23 -39 -71.5 -65.5t-105.5 -26.5zM234 91q33 0 60.5 15t44.5 42t17 62v4h-110q-22 0 -42 -6.5t-32 -20t-12 -36.5q0 -31 21.5 -45.5t52.5 -14.5zM379 539l-226 108v104l226 -122v-90z" />
    <glyph glyph-name="aacute" unicode="&#xe1;" horiz-adv-x="555" 
d="M197 -12q-44 0 -82 18t-61.5 51.5t-23.5 79.5q0 55 27 90t74.5 52t106.5 17h118q0 34 -10.5 57t-31 35.5t-50.5 12.5q-35 0 -62.5 -15.5t-33.5 -51.5h-128q5 54 37 93t82 60t107 21q70 0 118.5 -26t74.5 -73.5t26 -112.5v-151q2 -22 16 -30t37 -8v-107q-47 0 -78.5 9
t-51.5 26.5t-34 44.5q-23 -39 -71.5 -65.5t-105.5 -26.5zM234 91q33 0 60.5 15t44.5 42t17 62v4h-110q-22 0 -42 -6.5t-32 -20t-12 -36.5q0 -31 21.5 -45.5t52.5 -14.5zM153 539v90l226 122v-104z" />
    <glyph glyph-name="acircumflex" unicode="&#xe2;" horiz-adv-x="555" 
d="M197 -12q-44 0 -82 18t-61.5 51.5t-23.5 79.5q0 55 27 90t74.5 52t106.5 17h118q0 34 -10.5 57t-31 35.5t-50.5 12.5q-35 0 -62.5 -15.5t-33.5 -51.5h-128q5 54 37 93t82 60t107 21q70 0 118.5 -26t74.5 -73.5t26 -112.5v-151q2 -22 16 -30t37 -8v-107q-47 0 -78.5 9
t-51.5 26.5t-34 44.5q-23 -39 -71.5 -65.5t-105.5 -26.5zM234 91q33 0 60.5 15t44.5 42t17 62v4h-110q-22 0 -42 -6.5t-32 -20t-12 -36.5q0 -31 21.5 -45.5t52.5 -14.5zM120 554v92l146 80l146 -80v-92l-146 82z" />
    <glyph glyph-name="atilde" unicode="&#xe3;" horiz-adv-x="555" 
d="M197 -12q-44 0 -82 18t-61.5 51.5t-23.5 79.5q0 55 27 90t74.5 52t106.5 17h118q0 34 -10.5 57t-31 35.5t-50.5 12.5q-35 0 -62.5 -15.5t-33.5 -51.5h-128q5 54 37 93t82 60t107 21q70 0 118.5 -26t74.5 -73.5t26 -112.5v-151q2 -22 16 -30t37 -8v-107q-47 0 -78.5 9
t-51.5 26.5t-34 44.5q-23 -39 -71.5 -65.5t-105.5 -26.5zM234 91q33 0 60.5 15t44.5 42t17 62v4h-110q-22 0 -42 -6.5t-32 -20t-12 -36.5q0 -31 21.5 -45.5t52.5 -14.5zM324 579q-27 0 -46 11.5t-36 23t-41 11.5q-18 0 -28.5 -11t-14.5 -34h-68q10 64 40.5 94t76.5 30
q28 0 46.5 -11.5t36 -23t40.5 -11.5q17 0 28.5 11t14.5 34h68q-9 -64 -40.5 -94t-76.5 -30z" />
    <glyph glyph-name="adieresis" unicode="&#xe4;" horiz-adv-x="555" 
d="M197 -12q-44 0 -82 18t-61.5 51.5t-23.5 79.5q0 55 27 90t74.5 52t106.5 17h118q0 34 -10.5 57t-31 35.5t-50.5 12.5q-35 0 -62.5 -15.5t-33.5 -51.5h-128q5 54 37 93t82 60t107 21q70 0 118.5 -26t74.5 -73.5t26 -112.5v-151q2 -22 16 -30t37 -8v-107q-47 0 -78.5 9
t-51.5 26.5t-34 44.5q-23 -39 -71.5 -65.5t-105.5 -26.5zM234 91q33 0 60.5 15t44.5 42t17 62v4h-110q-22 0 -42 -6.5t-32 -20t-12 -36.5q0 -31 21.5 -45.5t52.5 -14.5zM155 560q-35 0 -59 24t-24 59t24 59t59 24t59 -24t24 -59t-24 -59t-59 -24zM377 560q-35 0 -59 24
t-24 59t24 59t59 24t59 -24t24 -59t-24 -59t-59 -24z" />
    <glyph glyph-name="aring" unicode="&#xe5;" horiz-adv-x="555" 
d="M197 -12q-44 0 -82 18t-61.5 51.5t-23.5 79.5q0 55 27 90t74.5 52t106.5 17h118q0 34 -10.5 57t-31 35.5t-50.5 12.5q-35 0 -62.5 -15.5t-33.5 -51.5h-128q5 54 37 93t82 60t107 21q70 0 118.5 -26t74.5 -73.5t26 -112.5v-151q2 -22 16 -30t37 -8v-107q-47 0 -78.5 9
t-51.5 26.5t-34 44.5q-23 -39 -71.5 -65.5t-105.5 -26.5zM234 91q33 0 60.5 15t44.5 42t17 62v4h-110q-22 0 -42 -6.5t-32 -20t-12 -36.5q0 -31 21.5 -45.5t52.5 -14.5zM265 545q-46 0 -79.5 30t-33.5 82t33.5 82t79.5 30q48 0 81.5 -30t33.5 -82t-33.5 -82t-81.5 -30z
M265 603q23 0 38 15t15 39q0 25 -15 39.5t-38 14.5q-21 0 -36 -14.5t-15 -39.5q0 -24 15 -39t36 -15z" />
    <glyph glyph-name="ae" unicode="&#xe6;" horiz-adv-x="901" 
d="M225 -12q-54 0 -98.5 18t-70.5 52t-26 81t23 82t70.5 55t118.5 20h133q0 58 -28.5 83t-69.5 25q-37 0 -65 -18t-35 -53h-125q6 58 39 97t82.5 58.5t103.5 19.5q59 0 105 -18.5t74 -53.5q33 34 78.5 53t97.5 19q70 0 125.5 -30.5t88 -85t32.5 -128.5q0 -10 -0.5 -22
t-1.5 -26h-370q4 -39 21.5 -66.5t44.5 -42t59 -14.5q38 0 64 17t40 44h129q-14 -45 -45.5 -82.5t-78.5 -60.5t-108 -23q-65 0 -118.5 27t-87.5 75q-30 -44 -78 -73t-123 -29zM243 88q34 0 60.5 16t43.5 43.5t23 59.5v9h-112q-49 0 -71 -18t-22 -46q0 -29 21.5 -46.5
t56.5 -17.5zM508 296h241q-4 51 -36.5 79.5t-79.5 28.5q-45 0 -80 -27t-45 -81z" />
    <glyph glyph-name="ccedilla" unicode="&#xe7;" horiz-adv-x="544" 
d="M278 -12q-75 0 -131 33.5t-87 92t-31 134.5q0 75 30.5 134t86.5 92.5t132 33.5q90 0 152.5 -45t84.5 -133h-137q-9 29 -34.5 49.5t-66.5 20.5t-67 -21t-38.5 -55.5t-12.5 -75.5t12.5 -75.5t38.5 -55t67 -20.5q39 0 64 17.5t37 51.5h137q-13 -56 -46.5 -96t-82 -61
t-108.5 -21zM184 -263v74h112q53 0 53 36q0 35 -53 35h-61v135h80v-67q35 1 64.5 -10.5t47.5 -35t18 -59.5t-18 -60t-47.5 -36t-64.5 -12h-131z" />
    <glyph glyph-name="egrave" unicode="&#xe8;" horiz-adv-x="553" 
d="M282 -12q-78 0 -134.5 34t-87.5 93t-31 133q0 79 32 137t89 90.5t132 32.5q74 0 129.5 -32t87 -88t31.5 -129q0 -13 -1 -25.5t-3 -23.5h-368q3 -35 18.5 -61.5t42 -41t60.5 -14.5q35 0 60.5 15t40.5 46h137q-14 -44 -45 -82t-78.5 -61t-111.5 -23zM159 295h239
q-1 50 -36.5 79t-83.5 29q-41 0 -76 -25.5t-43 -82.5zM390 539l-226 108v104l226 -122v-90z" />
    <glyph glyph-name="eacute" unicode="&#xe9;" horiz-adv-x="553" 
d="M282 -12q-78 0 -134.5 34t-87.5 93t-31 133q0 79 32 137t89 90.5t132 32.5q74 0 129.5 -32t87 -88t31.5 -129q0 -13 -1 -25.5t-3 -23.5h-368q3 -35 18.5 -61.5t42 -41t60.5 -14.5q35 0 60.5 15t40.5 46h137q-14 -44 -45 -82t-78.5 -61t-111.5 -23zM159 295h239
q-1 50 -36.5 79t-83.5 29q-41 0 -76 -25.5t-43 -82.5zM164 539v90l226 122v-104z" />
    <glyph glyph-name="ecircumflex" unicode="&#xea;" horiz-adv-x="553" 
d="M282 -12q-78 0 -134.5 34t-87.5 93t-31 133q0 79 32 137t89 90.5t132 32.5q74 0 129.5 -32t87 -88t31.5 -129q0 -13 -1 -25.5t-3 -23.5h-368q3 -35 18.5 -61.5t42 -41t60.5 -14.5q35 0 60.5 15t40.5 46h137q-14 -44 -45 -82t-78.5 -61t-111.5 -23zM159 295h239
q-1 50 -36.5 79t-83.5 29q-41 0 -76 -25.5t-43 -82.5zM131 554v92l146 80l146 -80v-92l-146 82z" />
    <glyph glyph-name="edieresis" unicode="&#xeb;" horiz-adv-x="553" 
d="M282 -12q-78 0 -134.5 34t-87.5 93t-31 133q0 79 32 137t89 90.5t132 32.5q74 0 129.5 -32t87 -88t31.5 -129q0 -13 -1 -25.5t-3 -23.5h-368q3 -35 18.5 -61.5t42 -41t60.5 -14.5q35 0 60.5 15t40.5 46h137q-14 -44 -45 -82t-78.5 -61t-111.5 -23zM159 295h239
q-1 50 -36.5 79t-83.5 29q-41 0 -76 -25.5t-43 -82.5zM166 560q-35 0 -59 24t-24 59t24 59t59 24t59 -24t24 -59t-24 -59t-59 -24zM388 560q-35 0 -59 24t-24 59t24 59t59 24t59 -24t24 -59t-24 -59t-59 -24z" />
    <glyph glyph-name="igrave" unicode="&#xec;" horiz-adv-x="219" 
d="M45 0v496h128v-496h-128zM223 539l-226 108v104l226 -122v-90z" />
    <glyph glyph-name="iacute" unicode="&#xed;" horiz-adv-x="219" 
d="M45 0v496h128v-496h-128zM-3 539v90l226 122v-104z" />
    <glyph glyph-name="icircumflex" unicode="&#xee;" horiz-adv-x="219" 
d="M45 0v496h128v-496h-128zM-36 554v92l146 80l146 -80v-92l-146 82z" />
    <glyph glyph-name="idieresis" unicode="&#xef;" horiz-adv-x="219" 
d="M45 0v496h128v-496h-128zM9 560q-35 0 -59 24t-24 59t24 59t59 24t59 -24t24 -59t-24 -59t-59 -24zM211 560q-35 0 -59 24t-24 59t24 59t59 24t59 -24t24 -59t-24 -59t-59 -24z" />
    <glyph glyph-name="eth" unicode="&#xf0;" horiz-adv-x="605" 
d="M299 -12q-79 0 -139.5 34.5t-95.5 92.5q-17 29 -26 61.5t-9 69.5q0 74 35 132t93 92q59 33 133 33q40 0 76 -11.5t68 -35.5q-11 31 -27.5 61.5t-36.5 60.5l-126 -41v77l77 25q-14 17 -29.5 32t-32.5 29h121q8 -7 16.5 -15t16.5 -16l122 40v-77l-70 -23q56 -75 83.5 -158
t27.5 -162q0 -92 -37 -159.5t-100 -104.5q-62 -37 -140 -37zM303 99q43 0 75 19t50 52.5t18 76.5q0 53 -22.5 85.5t-56 47.5t-65.5 15q-41 0 -73 -19t-50 -51.5t-18 -75.5q0 -42 18.5 -76t50.5 -54t73 -20z" />
    <glyph glyph-name="ntilde" unicode="&#xf1;" horiz-adv-x="562" 
d="M45 0v496h127v-58q26 35 69.5 52.5t87.5 17.5q86 0 141 -55.5t55 -160.5v-292h-127v275q0 56 -28.5 90.5t-83.5 34.5t-84.5 -34.5t-29.5 -90.5v-275h-127zM344 579q-27 0 -46 11.5t-36 23t-41 11.5q-18 0 -28.5 -11t-14.5 -34h-68q10 64 40.5 94t76.5 30q28 0 46.5 -11.5
t36 -23t40.5 -11.5q17 0 28.5 11t14.5 34h68q-9 -64 -40.5 -94t-76.5 -30z" />
    <glyph glyph-name="ograve" unicode="&#xf2;" horiz-adv-x="582" 
d="M287 -12q-75 0 -133.5 32.5t-91.5 91.5t-33 136q0 81 35.5 139.5t95 89.5t131.5 31q75 0 134 -32.5t93.5 -90.5t34.5 -137q0 -75 -34 -134t-93.5 -92.5t-138.5 -33.5zM289 99q40 0 69.5 20.5t46.5 55t17 75.5q0 47 -18.5 80t-48.5 50t-66 17q-39 0 -68.5 -19t-46 -52.5
t-16.5 -77.5t17.5 -78t47.5 -52.5t66 -18.5zM404 539l-226 108v104l226 -122v-90z" />
    <glyph glyph-name="oacute" unicode="&#xf3;" horiz-adv-x="582" 
d="M287 -12q-75 0 -133.5 32.5t-91.5 91.5t-33 136q0 81 35.5 139.5t95 89.5t131.5 31q75 0 134 -32.5t93.5 -90.5t34.5 -137q0 -75 -34 -134t-93.5 -92.5t-138.5 -33.5zM289 99q40 0 69.5 20.5t46.5 55t17 75.5q0 47 -18.5 80t-48.5 50t-66 17q-39 0 -68.5 -19t-46 -52.5
t-16.5 -77.5t17.5 -78t47.5 -52.5t66 -18.5zM178 539v90l226 122v-104z" />
    <glyph glyph-name="ocircumflex" unicode="&#xf4;" horiz-adv-x="582" 
d="M287 -12q-75 0 -133.5 32.5t-91.5 91.5t-33 136q0 81 35.5 139.5t95 89.5t131.5 31q75 0 134 -32.5t93.5 -90.5t34.5 -137q0 -75 -34 -134t-93.5 -92.5t-138.5 -33.5zM289 99q40 0 69.5 20.5t46.5 55t17 75.5q0 47 -18.5 80t-48.5 50t-66 17q-39 0 -68.5 -19t-46 -52.5
t-16.5 -77.5t17.5 -78t47.5 -52.5t66 -18.5zM145 554v92l146 80l146 -80v-92l-146 82z" />
    <glyph glyph-name="otilde" unicode="&#xf5;" horiz-adv-x="582" 
d="M287 -12q-75 0 -133.5 32.5t-91.5 91.5t-33 136q0 81 35.5 139.5t95 89.5t131.5 31q75 0 134 -32.5t93.5 -90.5t34.5 -137q0 -75 -34 -134t-93.5 -92.5t-138.5 -33.5zM289 99q40 0 69.5 20.5t46.5 55t17 75.5q0 47 -18.5 80t-48.5 50t-66 17q-39 0 -68.5 -19t-46 -52.5
t-16.5 -77.5t17.5 -78t47.5 -52.5t66 -18.5zM349 579q-27 0 -46 11.5t-36 23t-41 11.5q-18 0 -28.5 -11t-14.5 -34h-68q10 64 40.5 94t76.5 30q28 0 46.5 -11.5t36 -23t40.5 -11.5q17 0 28.5 11t14.5 34h68q-9 -64 -40.5 -94t-76.5 -30z" />
    <glyph glyph-name="odieresis" unicode="&#xf6;" horiz-adv-x="582" 
d="M287 -12q-75 0 -133.5 32.5t-91.5 91.5t-33 136q0 81 35.5 139.5t95 89.5t131.5 31q75 0 134 -32.5t93.5 -90.5t34.5 -137q0 -75 -34 -134t-93.5 -92.5t-138.5 -33.5zM289 99q40 0 69.5 20.5t46.5 55t17 75.5q0 47 -18.5 80t-48.5 50t-66 17q-39 0 -68.5 -19t-46 -52.5
t-16.5 -77.5t17.5 -78t47.5 -52.5t66 -18.5zM180 560q-35 0 -59 24t-24 59t24 59t59 24t59 -24t24 -59t-24 -59t-59 -24zM402 560q-35 0 -59 24t-24 59t24 59t59 24t59 -24t24 -59t-24 -59t-59 -24z" />
    <glyph glyph-name="divide" unicode="&#xf7;" horiz-adv-x="600" 
d="M75 236v107h450v-107h-450zM300 22q-37 0 -60 24t-23 58q0 36 23 60t60 24t60 -24t23 -60q0 -34 -23 -58t-60 -24zM300 392q-37 0 -60 24.5t-23 58.5q0 36 23 59.5t60 23.5t60 -23.5t23 -59.5q0 -34 -23 -58.5t-60 -24.5z" />
    <glyph glyph-name="oslash" unicode="&#xf8;" horiz-adv-x="582" 
d="M287 -12q-82 0 -142 37l-22 -25h-102l66 75q-28 33 -43 77t-15 96q0 81 35.5 139.5t95 89.5t131.5 31q41 0 77.5 -10t67.5 -29l23 27h102l-67 -76q28 -33 43.5 -76.5t15.5 -95.5q0 -75 -34 -134t-93.5 -92.5t-138.5 -33.5zM289 99q40 0 69.5 20.5t46.5 55t17 75.5
q0 21 -3.5 39t-11.5 33l-181 -206q28 -17 63 -17zM174 173l182 206q-30 18 -67 18q-39 0 -68.5 -19t-46 -52.5t-16.5 -77.5q0 -21 4.5 -39.5t11.5 -35.5z" />
    <glyph glyph-name="ugrave" unicode="&#xf9;" horiz-adv-x="562" 
d="M239 -12q-64 0 -109 27.5t-69 76t-24 110.5v294h127v-275q0 -55 28.5 -90t83.5 -35q57 0 85 34t28 91v275h128v-496h-128v58q-25 -34 -65.5 -52t-84.5 -18zM393 539l-226 108v104l226 -122v-90z" />
    <glyph glyph-name="uacute" unicode="&#xfa;" horiz-adv-x="562" 
d="M239 -12q-64 0 -109 27.5t-69 76t-24 110.5v294h127v-275q0 -55 28.5 -90t83.5 -35q57 0 85 34t28 91v275h128v-496h-128v58q-25 -34 -65.5 -52t-84.5 -18zM167 539v90l226 122v-104z" />
    <glyph glyph-name="ucircumflex" unicode="&#xfb;" horiz-adv-x="562" 
d="M239 -12q-64 0 -109 27.5t-69 76t-24 110.5v294h127v-275q0 -55 28.5 -90t83.5 -35q57 0 85 34t28 91v275h128v-496h-128v58q-25 -34 -65.5 -52t-84.5 -18zM134 554v92l146 80l146 -80v-92l-146 82z" />
    <glyph glyph-name="udieresis" unicode="&#xfc;" horiz-adv-x="562" 
d="M239 -12q-64 0 -109 27.5t-69 76t-24 110.5v294h127v-275q0 -55 28.5 -90t83.5 -35q57 0 85 34t28 91v275h128v-496h-128v58q-25 -34 -65.5 -52t-84.5 -18zM169 560q-35 0 -59 24t-24 59t24 59t59 24t59 -24t24 -59t-24 -59t-59 -24zM391 560q-35 0 -59 24t-24 59t24 59
t59 24t59 -24t24 -59t-24 -59t-59 -24z" />
    <glyph glyph-name="yacute" unicode="&#xfd;" horiz-adv-x="535" 
d="M91 -220l109 243l-201 473h143l128 -338l131 338h135l-310 -716h-135zM155 539v90l226 122v-104z" />
    <glyph glyph-name="thorn" unicode="&#xfe;" horiz-adv-x="612" 
d="M45 -220v920h128v-275q24 33 63.5 58t102.5 25q74 0 128.5 -35.5t85 -94.5t30.5 -131q0 -73 -31 -131.5t-86 -93t-127 -34.5q-56 0 -98 21t-68 59v-288h-128zM312 100q41 0 72.5 18.5t50 52t18.5 76.5q0 44 -18.5 77.5t-50 52.5t-72.5 19t-73 -19t-50 -52t-18 -77
q0 -43 18 -76.5t50 -52.5t73 -19z" />
    <glyph glyph-name="ydieresis" unicode="&#xff;" horiz-adv-x="535" 
d="M91 -220l109 243l-201 473h143l128 -338l131 338h135l-310 -716h-135zM157 560q-35 0 -59 24t-24 59t24 59t59 24t59 -24t24 -59t-24 -59t-59 -24zM379 560q-35 0 -59 24t-24 59t24 59t59 24t59 -24t24 -59t-24 -59t-59 -24z" />
    <glyph glyph-name="Amacron" unicode="&#x100;" horiz-adv-x="694" 
d="M19 0l256 700h144l256 -700h-136l-55 159h-275l-56 -159h-134zM245 262h203l-102 291zM170 783v91h354v-91h-354z" />
    <glyph glyph-name="amacron" unicode="&#x101;" horiz-adv-x="555" 
d="M197 -12q-44 0 -82 18t-61.5 51.5t-23.5 79.5q0 55 27 90t74.5 52t106.5 17h118q0 34 -10.5 57t-31 35.5t-50.5 12.5q-35 0 -62.5 -15.5t-33.5 -51.5h-128q5 54 37 93t82 60t107 21q70 0 118.5 -26t74.5 -73.5t26 -112.5v-151q2 -22 16 -30t37 -8v-107q-47 0 -78.5 9
t-51.5 26.5t-34 44.5q-23 -39 -71.5 -65.5t-105.5 -26.5zM234 91q33 0 60.5 15t44.5 42t17 62v4h-110q-22 0 -42 -6.5t-32 -20t-12 -36.5q0 -31 21.5 -45.5t52.5 -14.5zM89 599v91h354v-91h-354z" />
    <glyph glyph-name="Abreve" unicode="&#x102;" horiz-adv-x="694" 
d="M19 0l256 700h144l256 -700h-136l-55 159h-275l-56 -159h-134zM245 262h203l-102 291zM346 749q-72 0 -113.5 41t-41.5 111v16h68q0 -34 19.5 -53t68.5 -19q48 0 67.5 19t19.5 53h68v-17q0 -69 -42 -110t-114 -41z" />
    <glyph glyph-name="abreve" unicode="&#x103;" horiz-adv-x="555" 
d="M197 -12q-44 0 -82 18t-61.5 51.5t-23.5 79.5q0 55 27 90t74.5 52t106.5 17h118q0 34 -10.5 57t-31 35.5t-50.5 12.5q-35 0 -62.5 -15.5t-33.5 -51.5h-128q5 54 37 93t82 60t107 21q70 0 118.5 -26t74.5 -73.5t26 -112.5v-151q2 -22 16 -30t37 -8v-107q-47 0 -78.5 9
t-51.5 26.5t-34 44.5q-23 -39 -71.5 -65.5t-105.5 -26.5zM234 91q33 0 60.5 15t44.5 42t17 62v4h-110q-22 0 -42 -6.5t-32 -20t-12 -36.5q0 -31 21.5 -45.5t52.5 -14.5zM265 544q-72 0 -113.5 41t-41.5 111v16h68q0 -34 19.5 -53t68.5 -19q48 0 67.5 19t19.5 53h68v-17
q0 -69 -42 -110t-114 -41z" />
    <glyph glyph-name="Aogonek" unicode="&#x104;" horiz-adv-x="694" 
d="M19 0l256 700h144l256 -700h-136l-55 159h-275l-56 -159h-134zM245 262h203l-102 291zM593 -210q-54 0 -93.5 25t-39.5 79q0 40 30.5 76t109.5 70l46 20l29 -60l-52 -26q-36 -18 -51 -34t-15 -34q0 -19 14 -30t38 -11q32 0 71 15v-76q-19 -6 -41.5 -10t-45.5 -4z" />
    <glyph glyph-name="aogonek" unicode="&#x105;" horiz-adv-x="555" 
d="M197 -12q-44 0 -82 18t-61.5 51.5t-23.5 79.5q0 55 27 90t74.5 52t106.5 17h118q0 34 -10.5 57t-31 35.5t-50.5 12.5q-35 0 -62.5 -15.5t-33.5 -51.5h-128q5 54 37 93t82 60t107 21q70 0 118.5 -26t74.5 -73.5t26 -112.5v-151q2 -22 16 -30t37 -8v-107q-47 0 -78.5 9
t-51.5 26.5t-34 44.5q-23 -39 -71.5 -65.5t-105.5 -26.5zM234 91q33 0 60.5 15t44.5 42t17 62v4h-110q-22 0 -42 -6.5t-32 -20t-12 -36.5q0 -31 21.5 -45.5t52.5 -14.5zM456 -210q-54 0 -93.5 25t-39.5 79q0 40 30.5 76t109.5 70l46 20l29 -60l-52 -26q-36 -18 -51 -34
t-15 -34q0 -19 14 -30t38 -11q32 0 71 15v-76q-19 -6 -41.5 -10t-45.5 -4z" />
    <glyph glyph-name="Cacute" unicode="&#x106;" horiz-adv-x="729" 
d="M381 -12q-108 0 -184 47t-116 128.5t-40 185.5t39 186t115 129.5t186 47.5q126 0 206.5 -62.5t100.5 -175.5h-141q-13 57 -55.5 89.5t-112.5 32.5q-64 0 -110.5 -30t-71.5 -85t-25 -132q0 -76 25 -131.5t71.5 -85t110.5 -29.5q70 0 112.5 30.5t55.5 84.5h141
q-20 -108 -100.5 -169t-206.5 -61zM266 740v90l226 122v-104z" />
    <glyph glyph-name="cacute" unicode="&#x107;" horiz-adv-x="544" 
d="M278 -12q-75 0 -131 33.5t-87 92t-31 134.5q0 75 30.5 134t86.5 92.5t132 33.5q90 0 152.5 -45t84.5 -133h-137q-9 29 -34.5 49.5t-66.5 20.5t-67 -21t-38.5 -55.5t-12.5 -75.5t12.5 -75.5t38.5 -55t67 -20.5q39 0 64 17.5t37 51.5h137q-13 -56 -46.5 -96t-82 -61
t-108.5 -21zM163 539v90l226 122v-104z" />
    <glyph glyph-name="Cdotaccent" unicode="&#x10a;" horiz-adv-x="729" 
d="M381 -12q-108 0 -184 47t-116 128.5t-40 185.5t39 186t115 129.5t186 47.5q126 0 206.5 -62.5t100.5 -175.5h-141q-13 57 -55.5 89.5t-112.5 32.5q-64 0 -110.5 -30t-71.5 -85t-25 -132q0 -76 25 -131.5t71.5 -85t110.5 -29.5q70 0 112.5 30.5t55.5 84.5h141
q-20 -108 -100.5 -169t-206.5 -61zM379 768q-35 0 -59 24t-24 59t24 59t59 24t59 -24t24 -59t-24 -59t-59 -24z" />
    <glyph glyph-name="cdotaccent" unicode="&#x10b;" horiz-adv-x="544" 
d="M278 -12q-75 0 -131 33.5t-87 92t-31 134.5q0 75 30.5 134t86.5 92.5t132 33.5q90 0 152.5 -45t84.5 -133h-137q-9 29 -34.5 49.5t-66.5 20.5t-67 -21t-38.5 -55.5t-12.5 -75.5t12.5 -75.5t38.5 -55t67 -20.5q39 0 64 17.5t37 51.5h137q-13 -56 -46.5 -96t-82 -61
t-108.5 -21zM276 560q-35 0 -59 24t-24 59t24 59t59 24t59 -24t24 -59t-24 -59t-59 -24z" />
    <glyph glyph-name="Ccaron" unicode="&#x10c;" horiz-adv-x="729" 
d="M381 -12q-108 0 -184 47t-116 128.5t-40 185.5t39 186t115 129.5t186 47.5q126 0 206.5 -62.5t100.5 -175.5h-141q-13 57 -55.5 89.5t-112.5 32.5q-64 0 -110.5 -30t-71.5 -85t-25 -132q0 -76 25 -131.5t71.5 -85t110.5 -29.5q70 0 112.5 30.5t55.5 84.5h141
q-20 -108 -100.5 -169t-206.5 -61zM379 746l-146 80v92l146 -85l146 85v-92z" />
    <glyph glyph-name="ccaron" unicode="&#x10d;" horiz-adv-x="544" 
d="M278 -12q-75 0 -131 33.5t-87 92t-31 134.5q0 75 30.5 134t86.5 92.5t132 33.5q90 0 152.5 -45t84.5 -133h-137q-9 29 -34.5 49.5t-66.5 20.5t-67 -21t-38.5 -55.5t-12.5 -75.5t12.5 -75.5t38.5 -55t67 -20.5q39 0 64 17.5t37 51.5h137q-13 -56 -46.5 -96t-82 -61
t-108.5 -21zM276 554l-146 80v92l146 -85l146 85v-92z" />
    <glyph glyph-name="Dcaron" unicode="&#x10e;" horiz-adv-x="703" 
d="M64 0v700h239q125 0 204.5 -44t117 -123t37.5 -183q0 -112 -41.5 -190.5t-121.5 -119t-196 -40.5h-239zM192 110h105q89 0 140 29t72.5 83t21.5 128q0 125 -57.5 183t-176.5 58h-105v-481zM346 746l-146 80v92l146 -85l146 85v-92z" />
    <glyph glyph-name="dcaron" unicode="&#x10f;" horiz-adv-x="598" 
d="M259 -12q-72 0 -123.5 35.5t-79 95t-27.5 131.5t28 130.5t80 93t122 34.5q48 0 91.5 -20t73.5 -58v270h129v-700h-129v71q-25 -41 -70 -62t-95 -21zM292 100q40 0 69.5 19t46.5 52.5t17 76.5q0 53 -21 85.5t-52 47.5t-61 15q-39 0 -68.5 -19t-46.5 -51.5t-17 -75.5
q0 -42 17 -76t47 -54t69 -20zM578 546l48 154h120l-85 -154h-83z" />
    <glyph glyph-name="Dcroat" unicode="&#x110;" horiz-adv-x="716" 
d="M77 0v295h-75v110h75v295h239q125 0 204.5 -44t117 -123t37.5 -183q0 -112 -41.5 -190.5t-121.5 -119t-196 -40.5h-239zM205 110h105q89 0 140 29t72.5 83t21.5 128q0 125 -57.5 183t-176.5 58h-105v-186h177v-110h-177v-185z" />
    <glyph glyph-name="dcroat" unicode="&#x111;" horiz-adv-x="598" 
d="M259 -12q-72 0 -123.5 35.5t-79 95t-27.5 131.5t28 130.5t80 93t122 34.5q48 0 91.5 -20t73.5 -58v128h-155v90h155v52h129v-52h39v-90h-39v-558h-129v71q-25 -41 -70 -62t-95 -21zM159 250q0 -42 17 -76t47 -54t69 -20q40 0 69.5 19t46.5 52.5t17 76.5q0 53 -21 85.5
t-52 47.5t-61 15q-39 0 -68.5 -19t-46.5 -51.5t-17 -75.5z" />
    <glyph glyph-name="Emacron" unicode="&#x112;" horiz-adv-x="562" 
d="M64 0v700h449v-109h-321v-167h275v-109h-275v-206h321v-109h-449zM104 783v91h354v-91h-354z" />
    <glyph glyph-name="emacron" unicode="&#x113;" horiz-adv-x="553" 
d="M282 -12q-78 0 -134.5 34t-87.5 93t-31 133q0 79 32 137t89 90.5t132 32.5q74 0 129.5 -32t87 -88t31.5 -129q0 -13 -1 -25.5t-3 -23.5h-368q3 -35 18.5 -61.5t42 -41t60.5 -14.5q35 0 60.5 15t40.5 46h137q-14 -44 -45 -82t-78.5 -61t-111.5 -23zM159 295h239
q-1 50 -36.5 79t-83.5 29q-41 0 -76 -25.5t-43 -82.5zM100 599v91h354v-91h-354z" />
    <glyph glyph-name="Ebreve" unicode="&#x114;" horiz-adv-x="562" 
d="M64 0v700h449v-109h-321v-167h275v-109h-275v-206h321v-109h-449zM280 749q-72 0 -113.5 41t-41.5 111v16h68q0 -34 19.5 -53t68.5 -19q48 0 67.5 19t19.5 53h68v-17q0 -69 -42 -110t-114 -41z" />
    <glyph glyph-name="ebreve" unicode="&#x115;" horiz-adv-x="553" 
d="M282 -12q-78 0 -134.5 34t-87.5 93t-31 133q0 79 32 137t89 90.5t132 32.5q74 0 129.5 -32t87 -88t31.5 -129q0 -13 -1 -25.5t-3 -23.5h-368q3 -35 18.5 -61.5t42 -41t60.5 -14.5q35 0 60.5 15t40.5 46h137q-14 -44 -45 -82t-78.5 -61t-111.5 -23zM159 295h239
q-1 50 -36.5 79t-83.5 29q-41 0 -76 -25.5t-43 -82.5zM276 544q-72 0 -113.5 41t-41.5 111v16h68q0 -34 19.5 -53t68.5 -19q48 0 67.5 19t19.5 53h68v-17q0 -69 -42 -110t-114 -41z" />
    <glyph glyph-name="Edotaccent" unicode="&#x116;" horiz-adv-x="562" 
d="M64 0v700h449v-109h-321v-167h275v-109h-275v-206h321v-109h-449zM281 768q-35 0 -59 24t-24 59t24 59t59 24t59 -24t24 -59t-24 -59t-59 -24z" />
    <glyph glyph-name="edotaccent" unicode="&#x117;" horiz-adv-x="553" 
d="M282 -12q-78 0 -134.5 34t-87.5 93t-31 133q0 79 32 137t89 90.5t132 32.5q74 0 129.5 -32t87 -88t31.5 -129q0 -13 -1 -25.5t-3 -23.5h-368q3 -35 18.5 -61.5t42 -41t60.5 -14.5q35 0 60.5 15t40.5 46h137q-14 -44 -45 -82t-78.5 -61t-111.5 -23zM159 295h239
q-1 50 -36.5 79t-83.5 29q-41 0 -76 -25.5t-43 -82.5zM277 560q-35 0 -59 24t-24 59t24 59t59 24t59 -24t24 -59t-24 -59t-59 -24z" />
    <glyph glyph-name="Eogonek" unicode="&#x118;" horiz-adv-x="562" 
d="M64 0v700h449v-109h-321v-167h275v-109h-275v-206h321v-109h-449zM431 -210q-54 0 -93.5 25t-39.5 79q0 40 30.5 76t109.5 70l46 20l29 -60l-52 -26q-36 -18 -51 -34t-15 -34q0 -19 14 -30t38 -11q32 0 71 15v-76q-19 -6 -41.5 -10t-45.5 -4z" />
    <glyph glyph-name="eogonek" unicode="&#x119;" horiz-adv-x="553" 
d="M282 -12q-78 0 -134.5 34t-87.5 93t-31 133q0 79 32 137t89 90.5t132 32.5q74 0 129.5 -32t87 -88t31.5 -129q0 -13 -1 -25.5t-3 -23.5h-368q3 -35 18.5 -61.5t42 -41t60.5 -14.5q35 0 60.5 15t40.5 46h137q-14 -44 -45 -82t-78.5 -61t-111.5 -23zM159 295h239
q-1 50 -36.5 79t-83.5 29q-41 0 -76 -25.5t-43 -82.5zM306 -200q-54 0 -93.5 25t-39.5 79q0 40 30.5 76t109.5 70l46 20l29 -60l-52 -26q-36 -18 -51 -34t-15 -34q0 -19 14 -30t38 -11q32 0 71 15v-76q-19 -6 -41.5 -10t-45.5 -4z" />
    <glyph glyph-name="Ecaron" unicode="&#x11a;" horiz-adv-x="562" 
d="M64 0v700h449v-109h-321v-167h275v-109h-275v-206h321v-109h-449zM281 746l-146 80v92l146 -85l146 85v-92z" />
    <glyph glyph-name="ecaron" unicode="&#x11b;" horiz-adv-x="553" 
d="M282 -12q-78 0 -134.5 34t-87.5 93t-31 133q0 79 32 137t89 90.5t132 32.5q74 0 129.5 -32t87 -88t31.5 -129q0 -13 -1 -25.5t-3 -23.5h-368q3 -35 18.5 -61.5t42 -41t60.5 -14.5q35 0 60.5 15t40.5 46h137q-14 -44 -45 -82t-78.5 -61t-111.5 -23zM159 295h239
q-1 50 -36.5 79t-83.5 29q-41 0 -76 -25.5t-43 -82.5zM277 554l-146 80v92l146 -85l146 85v-92z" />
    <glyph glyph-name="Gbreve" unicode="&#x11e;" horiz-adv-x="765" 
d="M370 -12q-99 0 -173 45t-115 126t-41 187q0 103 40 186t118.5 131.5t191.5 48.5q123 0 204 -59t105 -163h-143q-16 49 -58 76.5t-108 27.5q-70 0 -119 -30t-74.5 -85.5t-25.5 -133.5q0 -77 25.5 -131.5t73 -83t111.5 -28.5q90 0 138 46t61 122h-223v108h355v-378h-118
l-10 92q-34 -50 -85 -77t-130 -27zM382 749q-72 0 -113.5 41t-41.5 111v16h68q0 -34 19.5 -53t68.5 -19q48 0 67.5 19t19.5 53h68v-17q0 -69 -42 -110t-114 -41z" />
    <glyph glyph-name="gbreve" unicode="&#x11f;" horiz-adv-x="527" 
d="M264 -232q-68 0 -122 15t-85.5 48.5t-31.5 87.5q0 35 15 60.5t46 44.5q-26 15 -39 38t-13 53q0 66 62 102q-22 23 -34 52.5t-12 61.5q0 54 26 93.5t72 61.5t105 22q43 0 79 -12h178v-96h-69q6 -17 10.5 -34t4.5 -35q0 -52 -27 -92t-72.5 -62.5t-103.5 -22.5
q-25 0 -46 4.5t-41 14.5q-22 -11 -22 -35q0 -44 73 -44h91q60 0 102.5 -16.5t64.5 -51.5t22 -89q0 -52 -31 -90t-84 -58.5t-118 -20.5zM264 -132q48 0 81.5 15.5t33.5 46.5q0 59 -82 59h-72q-40 0 -61.5 -15t-21.5 -44q0 -23 17 -36.5t45 -19.5t60 -6zM252 254
q38 0 62.5 21.5t24.5 55.5q0 33 -24.5 55t-62.5 22t-61.5 -22t-23.5 -55q0 -34 22.5 -55.5t62.5 -21.5zM252 544q-72 0 -113.5 41t-41.5 111v16h68q0 -34 19.5 -53t68.5 -19q48 0 67.5 19t19.5 53h68v-17q0 -69 -42 -110t-114 -41z" />
    <glyph glyph-name="Gdotaccent" unicode="&#x120;" horiz-adv-x="765" 
d="M370 -12q-99 0 -173 45t-115 126t-41 187q0 103 40 186t118.5 131.5t191.5 48.5q123 0 204 -59t105 -163h-143q-16 49 -58 76.5t-108 27.5q-70 0 -119 -30t-74.5 -85.5t-25.5 -133.5q0 -77 25.5 -131.5t73 -83t111.5 -28.5q90 0 138 46t61 122h-223v108h355v-378h-118
l-10 92q-34 -50 -85 -77t-130 -27zM383 768q-35 0 -59 24t-24 59t24 59t59 24t59 -24t24 -59t-24 -59t-59 -24z" />
    <glyph glyph-name="gdotaccent" unicode="&#x121;" horiz-adv-x="527" 
d="M264 -232q-68 0 -122 15t-85.5 48.5t-31.5 87.5q0 35 15 60.5t46 44.5q-26 15 -39 38t-13 53q0 66 62 102q-22 23 -34 52.5t-12 61.5q0 54 26 93.5t72 61.5t105 22q43 0 79 -12h178v-96h-69q6 -17 10.5 -34t4.5 -35q0 -52 -27 -92t-72.5 -62.5t-103.5 -22.5
q-25 0 -46 4.5t-41 14.5q-22 -11 -22 -35q0 -44 73 -44h91q60 0 102.5 -16.5t64.5 -51.5t22 -89q0 -52 -31 -90t-84 -58.5t-118 -20.5zM264 -132q48 0 81.5 15.5t33.5 46.5q0 59 -82 59h-72q-40 0 -61.5 -15t-21.5 -44q0 -23 17 -36.5t45 -19.5t60 -6zM252 254
q38 0 62.5 21.5t24.5 55.5q0 33 -24.5 55t-62.5 22t-61.5 -22t-23.5 -55q0 -34 22.5 -55.5t62.5 -21.5zM253 560q-35 0 -59 24t-24 59t24 59t59 24t59 -24t24 -59t-24 -59t-59 -24z" />
    <glyph glyph-name="uni0122" unicode="&#x122;" horiz-adv-x="765" 
d="M370 -12q-99 0 -173 45t-115 126t-41 187q0 103 40 186t118.5 131.5t191.5 48.5q123 0 204 -59t105 -163h-143q-16 49 -58 76.5t-108 27.5q-70 0 -119 -30t-74.5 -85.5t-25.5 -133.5q0 -77 25.5 -131.5t73 -83t111.5 -28.5q90 0 138 46t61 122h-223v108h355v-378h-118
l-10 92q-34 -50 -85 -77t-130 -27zM326 -274v52q50 0 50 62v15h-55v100h109q8 -26 11.5 -50.5t3.5 -45.5q0 -64 -30 -98.5t-89 -34.5z" />
    <glyph glyph-name="uni0123" unicode="&#x123;" horiz-adv-x="527" 
d="M264 -232q-68 0 -122 15t-85.5 48.5t-31.5 87.5q0 35 15 60.5t46 44.5q-26 15 -39 38t-13 53q0 66 62 102q-22 23 -34 52.5t-12 61.5q0 54 26 93.5t72 61.5t105 22q43 0 79 -12h178v-96h-69q6 -17 10.5 -34t4.5 -35q0 -52 -27 -92t-72.5 -62.5t-103.5 -22.5
q-25 0 -46 4.5t-41 14.5q-22 -11 -22 -35q0 -44 73 -44h91q60 0 102.5 -16.5t64.5 -51.5t22 -89q0 -52 -31 -90t-84 -58.5t-118 -20.5zM264 -132q48 0 81.5 15.5t33.5 46.5q0 59 -82 59h-72q-40 0 -61.5 -15t-21.5 -44q0 -23 17 -36.5t45 -19.5t60 -6zM252 254
q38 0 62.5 21.5t24.5 55.5q0 33 -24.5 55t-62.5 22t-61.5 -22t-23.5 -55q0 -34 22.5 -55.5t62.5 -21.5zM307 824v-52q-50 0 -50 -62v-15h55v-100h-109q-8 26 -11.5 50.5t-3.5 45.5q0 64 30 98.5t89 34.5z" />
    <glyph glyph-name="Hbar" unicode="&#x126;" horiz-adv-x="699" 
d="M65 0v493h-41v109h41v98h128v-98h314v98h128v-98h40v-109h-40v-493h-128v316h-314v-316h-128zM193 425h314v68h-314v-68z" />
    <glyph glyph-name="hbar" unicode="&#x127;" horiz-adv-x="562" 
d="M45 0v558h-39v90h39v52h127v-52h157v-90h-157v-120q26 35 69.5 52.5t87.5 17.5q86 0 141 -55.5t55 -160.5v-292h-127v275q0 56 -28.5 90.5t-83.5 34.5t-84.5 -34.5t-29.5 -90.5v-275h-127z" />
    <glyph glyph-name="Itilde" unicode="&#x128;" horiz-adv-x="256" 
d="M64 0v700h128v-700h-128zM186 752q-27 0 -46 11.5t-36 23t-41 11.5q-35 0 -43 -45h-68q10 64 40.5 94t76.5 30q28 0 46.5 -11.5t36 -23t40.5 -11.5q17 0 28.5 11t14.5 34h68q-9 -64 -40.5 -94t-76.5 -30z" />
    <glyph glyph-name="itilde" unicode="&#x129;" horiz-adv-x="219" 
d="M45 0v496h128v-496h-128zM168 579q-27 0 -46 11.5t-36 23t-41 11.5q-18 0 -28.5 -11t-14.5 -34h-68q10 64 40.5 94t76.5 30q28 0 46.5 -11.5t36 -23t40.5 -11.5q17 0 28.5 11t14.5 34h68q-9 -64 -40.5 -94t-76.5 -30z" />
    <glyph glyph-name="Imacron" unicode="&#x12a;" horiz-adv-x="256" 
d="M64 0v700h128v-700h-128zM-49 783v91h354v-91h-354z" />
    <glyph glyph-name="imacron" unicode="&#x12b;" horiz-adv-x="219" 
d="M45 0v496h128v-496h-128zM-67 599v91h354v-91h-354z" />
    <glyph glyph-name="Ibreve" unicode="&#x12c;" horiz-adv-x="256" 
d="M64 0v700h128v-700h-128zM127 749q-72 0 -113.5 41t-41.5 111v16h68q0 -34 19.5 -53t68.5 -19q48 0 67.5 19t19.5 53h68v-17q0 -69 -42 -110t-114 -41z" />
    <glyph glyph-name="ibreve" unicode="&#x12d;" horiz-adv-x="219" 
d="M45 0v496h128v-496h-128zM109 544q-72 0 -113.5 41t-41.5 111v16h68q0 -34 19.5 -53t68.5 -19q48 0 67.5 19t19.5 53h68v-17q0 -69 -42 -110t-114 -41z" />
    <glyph glyph-name="Iogonek" unicode="&#x12e;" horiz-adv-x="256" 
d="M64 0v700h128v-700h-128zM110 -210q-54 0 -93.5 25t-39.5 79q0 40 30.5 76t109.5 70l46 20l29 -60l-52 -26q-36 -18 -51 -34t-15 -34q0 -19 14 -30t38 -11q32 0 71 15v-76q-19 -6 -41.5 -10t-45.5 -4z" />
    <glyph glyph-name="iogonek" unicode="&#x12f;" horiz-adv-x="219" 
d="M45 0v496h128v-496h-128zM110 560q-35 0 -59 24t-24 59t24 59t59 24t59 -24t24 -59t-24 -59t-59 -24zM91 -210q-54 0 -93.5 25t-39.5 79q0 40 30.5 76t109.5 70l46 20l29 -60l-52 -26q-36 -18 -51 -34t-15 -34q0 -19 14 -30t38 -11q32 0 71 15v-76q-19 -6 -41.5 -10
t-45.5 -4z" />
    <glyph glyph-name="Idotaccent" unicode="&#x130;" horiz-adv-x="256" 
d="M64 0v700h128v-700h-128zM128 768q-35 0 -59 24t-24 59t24 59t59 24t59 -24t24 -59t-24 -59t-59 -24z" />
    <glyph glyph-name="dotlessi" unicode="&#x131;" horiz-adv-x="219" 
d="M45 0v496h128v-496h-128z" />
    <glyph glyph-name="IJ" unicode="&#x132;" horiz-adv-x="780" 
d="M64 0v700h128v-700h-128zM503 -12q-102 0 -163.5 57.5t-61.5 163.5h128q1 -49 23 -78t71 -29q46 0 67 27.5t21 72.5v498h128v-498q0 -103 -57.5 -158.5t-155.5 -55.5z" />
    <glyph glyph-name="ij" unicode="&#x133;" horiz-adv-x="455" 
d="M114 560q-34 0 -58.5 24.5t-24.5 58.5q0 35 24.5 59t58.5 24q35 0 59 -24t24 -59q0 -34 -24 -58.5t-59 -24.5zM50 0v496h128v-496h-128zM190 -220v109h27q32 0 46.5 13t14.5 44v550h128v-550q0 -62 -22 -98.5t-60 -52t-87 -15.5h-47zM343 560q-35 0 -59 24.5t-24 58.5
q0 35 24 59t59 24t59 -24t24 -59q0 -34 -24 -58.5t-59 -24.5z" />
    <glyph glyph-name="uni0136" unicode="&#x136;" horiz-adv-x="632" 
d="M595 700l-248 -269l269 -431h-151l-204 338l-69 -77v-261h-128v700h128v-269l247 269h156zM259 -274v52q50 0 50 62v15h-55v100h109q8 -26 11.5 -50.5t3.5 -45.5q0 -64 -30 -98.5t-89 -34.5z" />
    <glyph glyph-name="uni0137" unicode="&#x137;" horiz-adv-x="523" 
d="M45 0v700h128v-414l165 210h165l-218 -249l221 -247h-165l-168 211v-211h-128zM205 -274v52q50 0 50 62v15h-55v100h109q8 -26 11.5 -50.5t3.5 -45.5q0 -64 -30 -98.5t-89 -34.5z" />
    <glyph glyph-name="Lacute" unicode="&#x139;" horiz-adv-x="535" 
d="M64 0v700h128v-591h302v-109h-430zM62 740v90l226 122v-104z" />
    <glyph glyph-name="lacute" unicode="&#x13a;" horiz-adv-x="219" 
d="M45 0v700h128v-700h-128zM-3 743v90l226 122v-104z" />
    <glyph glyph-name="uni013B" unicode="&#x13b;" horiz-adv-x="535" 
d="M64 0v700h128v-591h302v-109h-430zM211 -274v52q50 0 50 62v15h-55v100h109q8 -26 11.5 -50.5t3.5 -45.5q0 -64 -30 -98.5t-89 -34.5z" />
    <glyph glyph-name="uni013C" unicode="&#x13c;" horiz-adv-x="219" 
d="M45 0v700h128v-700h-128zM53 -274v52q50 0 50 62v15h-55v100h109q8 -26 11.5 -50.5t3.5 -45.5q0 -64 -30 -98.5t-89 -34.5z" />
    <glyph glyph-name="Lcaron" unicode="&#x13d;" horiz-adv-x="535" 
d="M64 0v700h128v-591h302v-109h-430zM281 546l48 154h120l-85 -154h-83z" />
    <glyph glyph-name="lcaron" unicode="&#x13e;" horiz-adv-x="219" 
d="M45 0v700h128v-700h-128zM202 546l48 154h120l-85 -154h-83z" />
    <glyph glyph-name="Ldot" unicode="&#x13f;" horiz-adv-x="535" 
d="M64 0v700h128v-591h302v-109h-430zM369 267q-35 0 -59 24.5t-24 58.5q0 35 24 59t59 24t59 -24t24 -59q0 -34 -24 -58.5t-59 -24.5z" />
    <glyph glyph-name="ldot" unicode="&#x140;" horiz-adv-x="354" 
d="M50 0v700h128v-700h-128zM288 304q-26 0 -44 17.5t-18 43.5t18 44.5t44 18.5t44 -18.5t18 -44.5t-18 -43.5t-44 -17.5z" />
    <glyph glyph-name="Lslash" unicode="&#x141;" horiz-adv-x="559" 
d="M88 0v293l-72 -25v106l72 25v301h128v-259l103 35v-106l-103 -35v-226h302v-109h-430z" />
    <glyph glyph-name="lslash" unicode="&#x142;" horiz-adv-x="317" 
d="M84 0v317l-69 -24v107l69 24v276h128v-232l70 25v-107l-70 -24v-362h-128z" />
    <glyph glyph-name="Nacute" unicode="&#x143;" horiz-adv-x="713" 
d="M64 0v700h128l329 -489v489h128v-700h-128l-329 488v-488h-128zM244 740v90l226 122v-104z" />
    <glyph glyph-name="nacute" unicode="&#x144;" horiz-adv-x="562" 
d="M45 0v496h127v-58q26 35 69.5 52.5t87.5 17.5q86 0 141 -55.5t55 -160.5v-292h-127v275q0 56 -28.5 90.5t-83.5 34.5t-84.5 -34.5t-29.5 -90.5v-275h-127zM173 539v90l226 122v-104z" />
    <glyph glyph-name="uni0145" unicode="&#x145;" horiz-adv-x="713" 
d="M64 0v700h128l329 -489v489h128v-700h-128l-329 488v-488h-128zM300 -274v52q50 0 50 62v15h-55v100h109q8 -26 11.5 -50.5t3.5 -45.5q0 -64 -30 -98.5t-89 -34.5z" />
    <glyph glyph-name="uni0146" unicode="&#x146;" horiz-adv-x="562" 
d="M45 0v496h127v-58q26 35 69.5 52.5t87.5 17.5q86 0 141 -55.5t55 -160.5v-292h-127v275q0 56 -28.5 90.5t-83.5 34.5t-84.5 -34.5t-29.5 -90.5v-275h-127zM232 -274v52q50 0 50 62v15h-55v100h109q8 -26 11.5 -50.5t3.5 -45.5q0 -64 -30 -98.5t-89 -34.5z" />
    <glyph glyph-name="Ncaron" unicode="&#x147;" horiz-adv-x="713" 
d="M64 0v700h128l329 -489v489h128v-700h-128l-329 488v-488h-128zM357 746l-146 80v92l146 -85l146 85v-92z" />
    <glyph glyph-name="ncaron" unicode="&#x148;" horiz-adv-x="562" 
d="M45 0v496h127v-58q26 35 69.5 52.5t87.5 17.5q86 0 141 -55.5t55 -160.5v-292h-127v275q0 56 -28.5 90.5t-83.5 34.5t-84.5 -34.5t-29.5 -90.5v-275h-127zM286 554l-146 80v92l146 -85l146 85v-92z" />
    <glyph glyph-name="Eng" unicode="&#x14a;" horiz-adv-x="713" 
d="M64 0v700h128l329 -489v489h128v-754q0 -62 -22 -98.5t-60 -52t-87 -15.5h-47v109h27q32 0 46.5 13t14.5 44v54l-329 488v-488h-128z" />
    <glyph glyph-name="eng" unicode="&#x14b;" horiz-adv-x="562" 
d="M309 -220v109h28q32 0 46.5 13t14.5 44v329q0 56 -28.5 90.5t-83.5 34.5t-84.5 -34.5t-29.5 -90.5v-275h-127v496h127v-58q26 35 69.5 52.5t87.5 17.5q86 0 141 -55.5t55 -160.5v-346q0 -62 -22 -98.5t-60 -52t-87 -15.5h-47z" />
    <glyph glyph-name="Omacron" unicode="&#x14c;" horiz-adv-x="797" 
d="M398 -12q-70 0 -134.5 25t-114.5 72t-79 114t-29 151t29 151t79 114t114.5 72t134.5 25q71 0 135.5 -25t114.5 -72t79 -114t29 -151t-29 -151t-79 -114t-114.5 -72t-135.5 -25zM398 104q56 0 108 26.5t85 81.5t33 138q0 84 -33 139t-85 81.5t-108 26.5q-55 0 -107 -26.5
t-85 -81.5t-33 -139q0 -83 33 -138t85 -81.5t107 -26.5zM222 783v91h354v-91h-354z" />
    <glyph glyph-name="omacron" unicode="&#x14d;" horiz-adv-x="582" 
d="M287 -12q-75 0 -133.5 32.5t-91.5 91.5t-33 136q0 81 35.5 139.5t95 89.5t131.5 31q75 0 134 -32.5t93.5 -90.5t34.5 -137q0 -75 -34 -134t-93.5 -92.5t-138.5 -33.5zM289 99q40 0 69.5 20.5t46.5 55t17 75.5q0 47 -18.5 80t-48.5 50t-66 17q-39 0 -68.5 -19t-46 -52.5
t-16.5 -77.5t17.5 -78t47.5 -52.5t66 -18.5zM114 599v91h354v-91h-354z" />
    <glyph glyph-name="Obreve" unicode="&#x14e;" horiz-adv-x="797" 
d="M398 -12q-70 0 -134.5 25t-114.5 72t-79 114t-29 151t29 151t79 114t114.5 72t134.5 25q71 0 135.5 -25t114.5 -72t79 -114t29 -151t-29 -151t-79 -114t-114.5 -72t-135.5 -25zM398 104q56 0 108 26.5t85 81.5t33 138q0 84 -33 139t-85 81.5t-108 26.5q-55 0 -107 -26.5
t-85 -81.5t-33 -139q0 -83 33 -138t85 -81.5t107 -26.5zM398 749q-72 0 -113.5 41t-41.5 111v16h68q0 -34 19.5 -53t68.5 -19q48 0 67.5 19t19.5 53h68v-17q0 -69 -42 -110t-114 -41z" />
    <glyph glyph-name="obreve" unicode="&#x14f;" horiz-adv-x="582" 
d="M287 -12q-75 0 -133.5 32.5t-91.5 91.5t-33 136q0 81 35.5 139.5t95 89.5t131.5 31q75 0 134 -32.5t93.5 -90.5t34.5 -137q0 -75 -34 -134t-93.5 -92.5t-138.5 -33.5zM289 99q40 0 69.5 20.5t46.5 55t17 75.5q0 47 -18.5 80t-48.5 50t-66 17q-39 0 -68.5 -19t-46 -52.5
t-16.5 -77.5t17.5 -78t47.5 -52.5t66 -18.5zM290 544q-72 0 -113.5 41t-41.5 111v16h68q0 -34 19.5 -53t68.5 -19q48 0 67.5 19t19.5 53h68v-17q0 -69 -42 -110t-114 -41z" />
    <glyph glyph-name="Ohungarumlaut" unicode="&#x150;" horiz-adv-x="797" 
d="M398 -12q-70 0 -134.5 25t-114.5 72t-79 114t-29 151t29 151t79 114t114.5 72t134.5 25q71 0 135.5 -25t114.5 -72t79 -114t29 -151t-29 -151t-79 -114t-114.5 -72t-135.5 -25zM398 104q56 0 108 26.5t85 81.5t33 138q0 84 -33 139t-85 81.5t-108 26.5q-55 0 -107 -26.5
t-85 -81.5t-33 -139q0 -83 33 -138t85 -81.5t107 -26.5zM391 748l81 179h105l-106 -179h-80zM221 748l71 179h104l-94 -179h-81z" />
    <glyph glyph-name="ohungarumlaut" unicode="&#x151;" horiz-adv-x="582" 
d="M287 -12q-75 0 -133.5 32.5t-91.5 91.5t-33 136q0 81 35.5 139.5t95 89.5t131.5 31q75 0 134 -32.5t93.5 -90.5t34.5 -137q0 -75 -34 -134t-93.5 -92.5t-138.5 -33.5zM289 99q40 0 69.5 20.5t46.5 55t17 75.5q0 47 -18.5 80t-48.5 50t-66 17q-39 0 -68.5 -19t-46 -52.5
t-16.5 -77.5t17.5 -78t47.5 -52.5t66 -18.5zM313 544l81 179h105l-106 -179h-80zM143 544l71 179h104l-94 -179h-81z" />
    <glyph glyph-name="OE" unicode="&#x152;" horiz-adv-x="1095" 
d="M385 -12q-76 0 -139 27.5t-109 76.5t-71 115t-25 143q0 78 25.5 144.5t71.5 115t109 75.5t138 27q68 0 131.5 -28.5t102.5 -82.5v99h427v-109h-299v-167h253v-109h-253v-206h299v-109h-427v96q-38 -52 -102 -80t-132 -28zM395 103q54 0 95.5 20t70 54.5t43.5 79t15 93.5
q0 76 -30 131.5t-81 85.5t-113 30q-75 0 -124.5 -36t-74 -92.5t-24.5 -118.5q0 -58 17.5 -104t49 -78t71.5 -48.5t85 -16.5z" />
    <glyph glyph-name="oe" unicode="&#x153;" horiz-adv-x="935" 
d="M283 -12q-72 0 -129.5 33.5t-90.5 91.5q-17 29 -25.5 63t-8.5 72q0 77 34 135.5t92 91.5q57 33 129 33q59 0 106 -23.5t78 -66.5q32 42 82.5 66t113.5 24q74 0 130 -31.5t87 -87.5q31 -55 31 -124q0 -11 -0.5 -23t-1.5 -25h-377q5 -59 41.5 -91.5t88.5 -32.5
q38 0 64.5 17t41.5 44h129q-14 -45 -46 -83t-79.5 -60.5t-108.5 -22.5q-63 0 -113.5 23.5t-83.5 65.5q-31 -42 -78 -65.5t-106 -23.5zM283 99q34 0 62 16.5t45 50t17 82.5q0 50 -17 83t-45 49.5t-61 16.5q-34 0 -62 -16.5t-45 -49.5t-17 -83q0 -49 17 -82.5t45 -50t61 -16.5
zM537 297h246q-3 49 -36.5 78t-82.5 29q-31 0 -58 -12t-45 -35.5t-24 -59.5z" />
    <glyph glyph-name="Racute" unicode="&#x154;" horiz-adv-x="615" 
d="M64 0v700h243q73 0 126.5 -23.5t83.5 -68.5t30 -110q0 -75 -40 -120t-109 -62l195 -316h-151l-172 295h-78v-295h-128zM192 404h112q45 0 69.5 12.5t34 33.5t9.5 48t-9.5 48t-34 33t-69.5 12h-112v-187zM192 740v90l226 122v-104z" />
    <glyph glyph-name="racute" unicode="&#x155;" horiz-adv-x="342" 
d="M45 0v496h127v-74q26 42 66 64t89 22v-134h-34q-61 0 -91 -29t-30 -97v-248h-127zM58 539v90l226 122v-104z" />
    <glyph glyph-name="uni0156" unicode="&#x156;" horiz-adv-x="615" 
d="M64 0v700h243q73 0 126.5 -23.5t83.5 -68.5t30 -110q0 -75 -40 -120t-109 -62l195 -316h-151l-172 295h-78v-295h-128zM192 404h112q45 0 69.5 12.5t34 33.5t9.5 48t-9.5 48t-34 33t-69.5 12h-112v-187zM254 -274v52q50 0 50 62v15h-55v100h109q8 -26 11.5 -50.5
t3.5 -45.5q0 -64 -30 -98.5t-89 -34.5z" />
    <glyph glyph-name="uni0157" unicode="&#x157;" horiz-adv-x="342" 
d="M45 0v496h127v-74q26 42 66 64t89 22v-134h-34q-61 0 -91 -29t-30 -97v-248h-127zM59 -274v52q50 0 50 62v15h-55v100h109q8 -26 11.5 -50.5t3.5 -45.5q0 -64 -30 -98.5t-89 -34.5z" />
    <glyph glyph-name="Rcaron" unicode="&#x158;" horiz-adv-x="615" 
d="M64 0v700h243q73 0 126.5 -23.5t83.5 -68.5t30 -110q0 -75 -40 -120t-109 -62l195 -316h-151l-172 295h-78v-295h-128zM192 404h112q45 0 69.5 12.5t34 33.5t9.5 48t-9.5 48t-34 33t-69.5 12h-112v-187zM305 746l-146 80v92l146 -85l146 85v-92z" />
    <glyph glyph-name="rcaron" unicode="&#x159;" horiz-adv-x="342" 
d="M45 0v496h127v-74q26 42 66 64t89 22v-134h-34q-61 0 -91 -29t-30 -97v-248h-127zM171 554l-146 80v92l146 -85l146 85v-92z" />
    <glyph glyph-name="Sacute" unicode="&#x15a;" horiz-adv-x="589" 
d="M303 -12q-73 0 -132.5 25t-94.5 74.5t-37 123.5h135q2 -49 35.5 -82t92.5 -33q51 0 81 24t30 65q0 21 -6.5 37t-24.5 30t-50.5 27.5t-85.5 30.5q-69 23 -111 53t-60.5 67.5t-18.5 81.5q0 66 31.5 110.5t85 67t118.5 22.5q66 0 119.5 -23t86.5 -68t34 -111h-137
q-1 38 -29.5 66t-78.5 28q-40 0 -68 -21t-28 -62q0 -30 22.5 -51t61 -36.5t85.5 -32.5q26 -9 58.5 -23t62.5 -37.5t49.5 -59t19.5 -87.5q0 -64 -32.5 -110t-88 -71t-125.5 -25zM182 740v90l226 122v-104z" />
    <glyph glyph-name="sacute" unicode="&#x15b;" horiz-adv-x="474" 
d="M248 -12q-56 0 -105 20.5t-80.5 58.5t-34.5 89h128q5 -32 31.5 -50t59.5 -18q28 0 52.5 12.5t24.5 39.5q0 21 -18 33t-42 19t-44 12q-50 12 -91 28.5t-65 46t-24 78.5q0 48 27.5 82t73 51.5t98.5 17.5q83 0 140 -42t62 -124h-121q-3 32 -26.5 48.5t-58.5 16.5
q-28 0 -50 -10t-22 -38q0 -20 18 -32.5t43 -20t44 -12.5q52 -13 91.5 -30t62.5 -46t24 -78q0 -49 -27.5 -83t-72.5 -51.5t-98 -17.5zM124 539v90l226 122v-104z" />
    <glyph glyph-name="Scedilla" unicode="&#x15e;" horiz-adv-x="589" 
d="M303 -12q-73 0 -132.5 25t-94.5 74.5t-37 123.5h135q2 -49 35.5 -82t92.5 -33q51 0 81 24t30 65q0 21 -6.5 37t-24.5 30t-50.5 27.5t-85.5 30.5q-69 23 -111 53t-60.5 67.5t-18.5 81.5q0 66 31.5 110.5t85 67t118.5 22.5q66 0 119.5 -23t86.5 -68t34 -111h-137
q-1 38 -29.5 66t-78.5 28q-40 0 -68 -21t-28 -62q0 -30 22.5 -51t61 -36.5t85.5 -32.5q26 -9 58.5 -23t62.5 -37.5t49.5 -59t19.5 -87.5q0 -64 -32.5 -110t-88 -71t-125.5 -25zM203 -263v74h112q53 0 53 36q0 35 -53 35h-61v135h80v-67q35 1 64.5 -10.5t47.5 -35t18 -59.5
t-18 -60t-47.5 -36t-64.5 -12h-131z" />
    <glyph glyph-name="scedilla" unicode="&#x15f;" horiz-adv-x="474" 
d="M248 -12q-56 0 -105 20.5t-80.5 58.5t-34.5 89h128q5 -32 31.5 -50t59.5 -18q28 0 52.5 12.5t24.5 39.5q0 21 -18 33t-42 19t-44 12q-50 12 -91 28.5t-65 46t-24 78.5q0 48 27.5 82t73 51.5t98.5 17.5q83 0 140 -42t62 -124h-121q-3 32 -26.5 48.5t-58.5 16.5
q-28 0 -50 -10t-22 -38q0 -20 18 -32.5t43 -20t44 -12.5q52 -13 91.5 -30t62.5 -46t24 -78q0 -49 -27.5 -83t-72.5 -51.5t-98 -17.5zM152 -263v74h112q53 0 53 36q0 35 -53 35h-61v135h80v-67q35 1 64.5 -10.5t47.5 -35t18 -59.5t-18 -60t-47.5 -36t-64.5 -12h-131z" />
    <glyph glyph-name="Scaron" unicode="&#x160;" horiz-adv-x="589" 
d="M303 -12q-73 0 -132.5 25t-94.5 74.5t-37 123.5h135q2 -49 35.5 -82t92.5 -33q51 0 81 24t30 65q0 21 -6.5 37t-24.5 30t-50.5 27.5t-85.5 30.5q-69 23 -111 53t-60.5 67.5t-18.5 81.5q0 66 31.5 110.5t85 67t118.5 22.5q66 0 119.5 -23t86.5 -68t34 -111h-137
q-1 38 -29.5 66t-78.5 28q-40 0 -68 -21t-28 -62q0 -30 22.5 -51t61 -36.5t85.5 -32.5q26 -9 58.5 -23t62.5 -37.5t49.5 -59t19.5 -87.5q0 -64 -32.5 -110t-88 -71t-125.5 -25zM295 746l-146 80v92l146 -85l146 85v-92z" />
    <glyph glyph-name="scaron" unicode="&#x161;" horiz-adv-x="474" 
d="M248 -12q-56 0 -105 20.5t-80.5 58.5t-34.5 89h128q5 -32 31.5 -50t59.5 -18q28 0 52.5 12.5t24.5 39.5q0 21 -18 33t-42 19t-44 12q-50 12 -91 28.5t-65 46t-24 78.5q0 48 27.5 82t73 51.5t98.5 17.5q83 0 140 -42t62 -124h-121q-3 32 -26.5 48.5t-58.5 16.5
q-28 0 -50 -10t-22 -38q0 -20 18 -32.5t43 -20t44 -12.5q52 -13 91.5 -30t62.5 -46t24 -78q0 -49 -27.5 -83t-72.5 -51.5t-98 -17.5zM237 554l-146 80v92l146 -85l146 85v-92z" />
    <glyph glyph-name="uni0162" unicode="&#x162;" horiz-adv-x="582" 
d="M227 0v591h-204v109h537v-109h-205v-591h-128zM200 -263v74h112q53 0 53 36q0 35 -53 35h-61v135h80v-67q35 1 64.5 -10.5t47.5 -35t18 -59.5t-18 -60t-47.5 -36t-64.5 -12h-131z" />
    <glyph glyph-name="uni0163" unicode="&#x163;" horiz-adv-x="351" 
d="M240 0q-80 0 -120.5 39t-40.5 117v233h-64v107h64v121h128v-121h113v-107h-113v-234q0 -28 15 -38t39 -10h59v-107h-80zM125 -263v74h112q53 0 53 36q0 35 -53 35h-61v135h80v-67q35 1 64.5 -10.5t47.5 -35t18 -59.5t-18 -60t-47.5 -36t-64.5 -12h-131z" />
    <glyph glyph-name="Tcaron" unicode="&#x164;" horiz-adv-x="582" 
d="M227 0v591h-204v109h537v-109h-205v-591h-128zM292 746l-146 80v92l146 -85l146 85v-92z" />
    <glyph glyph-name="tcaron" unicode="&#x165;" horiz-adv-x="351" 
d="M240 0q-80 0 -120.5 39t-40.5 117v233h-64v107h64v121h128v-121h113v-107h-113v-234q0 -28 15 -38t39 -10h59v-107h-80zM253 546l48 154h120l-85 -154h-83z" />
    <glyph glyph-name="Utilde" unicode="&#x168;" horiz-adv-x="673" 
d="M334 -12q-96 0 -156.5 38.5t-89 102.5t-28.5 139v432h128v-433q0 -82 39.5 -122t109.5 -40q69 0 109 40t40 122v433h128v-432q0 -79 -25 -133t-66.5 -86t-91 -46.5t-97.5 -14.5zM395 752q-27 0 -46 11.5t-36 23t-41 11.5q-35 0 -43 -45h-68q10 64 40.5 94t76.5 30
q28 0 46.5 -11.5t36 -23t40.5 -11.5q17 0 28.5 11t14.5 34h68q-9 -64 -40.5 -94t-76.5 -30z" />
    <glyph glyph-name="utilde" unicode="&#x169;" horiz-adv-x="562" 
d="M239 -12q-64 0 -109 27.5t-69 76t-24 110.5v294h127v-275q0 -55 28.5 -90t83.5 -35q57 0 85 34t28 91v275h128v-496h-128v58q-25 -34 -65.5 -52t-84.5 -18zM338 579q-27 0 -46 11.5t-36 23t-41 11.5q-18 0 -28.5 -11t-14.5 -34h-68q10 64 40.5 94t76.5 30
q28 0 46.5 -11.5t36 -23t40.5 -11.5q17 0 28.5 11t14.5 34h68q-9 -64 -40.5 -94t-76.5 -30z" />
    <glyph glyph-name="Umacron" unicode="&#x16a;" horiz-adv-x="673" 
d="M334 -12q-96 0 -156.5 38.5t-89 102.5t-28.5 139v432h128v-433q0 -82 39.5 -122t109.5 -40q69 0 109 40t40 122v433h128v-432q0 -79 -25 -133t-66.5 -86t-91 -46.5t-97.5 -14.5zM160 783v91h354v-91h-354z" />
    <glyph glyph-name="umacron" unicode="&#x16b;" horiz-adv-x="562" 
d="M239 -12q-64 0 -109 27.5t-69 76t-24 110.5v294h127v-275q0 -55 28.5 -90t83.5 -35q57 0 85 34t28 91v275h128v-496h-128v58q-25 -34 -65.5 -52t-84.5 -18zM103 599v91h354v-91h-354z" />
    <glyph glyph-name="Ubreve" unicode="&#x16c;" horiz-adv-x="673" 
d="M334 -12q-96 0 -156.5 38.5t-89 102.5t-28.5 139v432h128v-433q0 -82 39.5 -122t109.5 -40q69 0 109 40t40 122v433h128v-432q0 -79 -25 -133t-66.5 -86t-91 -46.5t-97.5 -14.5zM336 749q-72 0 -113.5 41t-41.5 111v16h68q0 -34 19.5 -53t68.5 -19q48 0 67.5 19t19.5 53
h68v-17q0 -69 -42 -110t-114 -41z" />
    <glyph glyph-name="ubreve" unicode="&#x16d;" horiz-adv-x="562" 
d="M239 -12q-64 0 -109 27.5t-69 76t-24 110.5v294h127v-275q0 -55 28.5 -90t83.5 -35q57 0 85 34t28 91v275h128v-496h-128v58q-25 -34 -65.5 -52t-84.5 -18zM279 544q-72 0 -113.5 41t-41.5 111v16h68q0 -34 19.5 -53t68.5 -19q48 0 67.5 19t19.5 53h68v-17
q0 -69 -42 -110t-114 -41z" />
    <glyph glyph-name="Uring" unicode="&#x16e;" horiz-adv-x="673" 
d="M334 -12q-96 0 -156.5 38.5t-89 102.5t-28.5 139v432h128v-433q0 -82 39.5 -122t109.5 -40q69 0 109 40t40 122v433h128v-432q0 -79 -25 -133t-66.5 -86t-91 -46.5t-97.5 -14.5zM336 751q-46 0 -79.5 30t-33.5 82t33.5 82t79.5 30q48 0 81.5 -30t33.5 -82t-33.5 -82
t-81.5 -30zM336 809q23 0 38 15t15 39q0 25 -15 39.5t-38 14.5q-21 0 -36 -14.5t-15 -39.5q0 -24 15 -39t36 -15z" />
    <glyph glyph-name="uring" unicode="&#x16f;" horiz-adv-x="562" 
d="M239 -12q-64 0 -109 27.5t-69 76t-24 110.5v294h127v-275q0 -55 28.5 -90t83.5 -35q57 0 85 34t28 91v275h128v-496h-128v58q-25 -34 -65.5 -52t-84.5 -18zM279 545q-46 0 -79.5 30t-33.5 82t33.5 82t79.5 30q48 0 81.5 -30t33.5 -82t-33.5 -82t-81.5 -30zM279 603
q23 0 38 15t15 39q0 25 -15 39.5t-38 14.5q-21 0 -36 -14.5t-15 -39.5q0 -24 15 -39t36 -15z" />
    <glyph glyph-name="Uhungarumlaut" unicode="&#x170;" horiz-adv-x="673" 
d="M334 -12q-96 0 -156.5 38.5t-89 102.5t-28.5 139v432h128v-433q0 -82 39.5 -122t109.5 -40q69 0 109 40t40 122v433h128v-432q0 -79 -25 -133t-66.5 -86t-91 -46.5t-97.5 -14.5zM329 748l81 179h105l-106 -179h-80zM159 748l71 179h104l-94 -179h-81z" />
    <glyph glyph-name="uhungarumlaut" unicode="&#x171;" horiz-adv-x="562" 
d="M239 -12q-64 0 -109 27.5t-69 76t-24 110.5v294h127v-275q0 -55 28.5 -90t83.5 -35q57 0 85 34t28 91v275h128v-496h-128v58q-25 -34 -65.5 -52t-84.5 -18zM302 544l81 179h105l-106 -179h-80zM132 544l71 179h104l-94 -179h-81z" />
    <glyph glyph-name="Uogonek" unicode="&#x172;" horiz-adv-x="673" 
d="M334 -12q-96 0 -156.5 38.5t-89 102.5t-28.5 139v432h128v-433q0 -82 39.5 -122t109.5 -40q69 0 109 40t40 122v433h128v-432q0 -79 -25 -133t-66.5 -86t-91 -46.5t-97.5 -14.5zM336 -200q-54 0 -93.5 25t-39.5 79q0 40 30.5 76t109.5 70l46 20l29 -60l-52 -26
q-36 -18 -51 -34t-15 -34q0 -19 14 -30t38 -11q32 0 71 15v-76q-19 -6 -41.5 -10t-45.5 -4z" />
    <glyph glyph-name="uogonek" unicode="&#x173;" horiz-adv-x="562" 
d="M239 -12q-64 0 -109 27.5t-69 76t-24 110.5v294h127v-275q0 -55 28.5 -90t83.5 -35q57 0 85 34t28 91v275h128v-496h-128v58q-25 -34 -65.5 -52t-84.5 -18zM435 -210q-54 0 -93.5 25t-39.5 79q0 40 30.5 76t109.5 70l46 20l29 -60l-52 -26q-36 -18 -51 -34t-15 -34
q0 -19 14 -30t38 -11q32 0 71 15v-76q-19 -6 -41.5 -10t-45.5 -4z" />
    <glyph glyph-name="Wcircumflex" unicode="&#x174;" horiz-adv-x="997" 
d="M261 0l-243 700h131l189 -579l75 234l-121 345h129l78 -245l77 245h130l-122 -345l75 -234l189 579h131l-243 -700h-152l-85 254l-86 -254h-152zM353 747v92l146 80l146 -80v-92l-146 82z" />
    <glyph glyph-name="wcircumflex" unicode="&#x175;" horiz-adv-x="747" 
d="M145 0l-148 496h129l89 -377l96 377h135l94 -376l89 376h122l-147 -495h-137l-92 346l-92 -347h-138zM229 554v92l146 80l146 -80v-92l-146 82z" />
    <glyph glyph-name="Ycircumflex" unicode="&#x176;" horiz-adv-x="617" 
d="M245 0v281l-235 419h145l155 -291l154 291h143l-234 -419v-281h-128zM163 747v92l146 80l146 -80v-92l-146 82z" />
    <glyph glyph-name="ycircumflex" unicode="&#x177;" horiz-adv-x="535" 
d="M91 -220l109 243l-201 473h143l128 -338l131 338h135l-310 -716h-135zM122 554v92l146 80l146 -80v-92l-146 82z" />
    <glyph glyph-name="Ydieresis" unicode="&#x178;" horiz-adv-x="617" 
d="M245 0v281l-235 419h145l155 -291l154 291h143l-234 -419v-281h-128zM198 768q-35 0 -59 24t-24 59t24 59t59 24t59 -24t24 -59t-24 -59t-59 -24zM420 768q-35 0 -59 24t-24 59t24 59t59 24t59 -24t24 -59t-24 -59t-59 -24z" />
    <glyph glyph-name="Zacute" unicode="&#x179;" horiz-adv-x="558" 
d="M43 0v98l321 494h-318v108h467v-98l-323 -493h325v-109h-472zM166 740v90l226 122v-104z" />
    <glyph glyph-name="zacute" unicode="&#x17a;" horiz-adv-x="413" 
d="M22 0v103l220 289h-219v104h365v-102l-221 -289h224v-105h-369zM94 539v90l226 122v-104z" />
    <glyph glyph-name="Zdotaccent" unicode="&#x17b;" horiz-adv-x="558" 
d="M43 0v98l321 494h-318v108h467v-98l-323 -493h325v-109h-472zM279 768q-35 0 -59 24t-24 59t24 59t59 24t59 -24t24 -59t-24 -59t-59 -24z" />
    <glyph glyph-name="zdotaccent" unicode="&#x17c;" horiz-adv-x="413" 
d="M22 0v103l220 289h-219v104h365v-102l-221 -289h224v-105h-369zM207 560q-35 0 -59 24t-24 59t24 59t59 24t59 -24t24 -59t-24 -59t-59 -24z" />
    <glyph glyph-name="Zcaron" unicode="&#x17d;" horiz-adv-x="558" 
d="M43 0v98l321 494h-318v108h467v-98l-323 -493h325v-109h-472zM279 746l-146 80v92l146 -85l146 85v-92z" />
    <glyph glyph-name="zcaron" unicode="&#x17e;" horiz-adv-x="413" 
d="M22 0v103l220 289h-219v104h365v-102l-221 -289h224v-105h-369zM207 554l-146 80v92l146 -85l146 85v-92z" />
    <glyph glyph-name="uni018F" unicode="&#x18f;" horiz-adv-x="758" 
d="M376 -12q-100 0 -175 40t-117 116q-43 74 -43 182q0 14 1 29.5t3 30.5h537q-3 66 -30.5 113t-72.5 72q-22 13 -47.5 19t-53.5 6q-67 0 -118 -32.5t-70 -89.5h-141q20 70 65.5 124t112.5 84q68 30 149 30q102 0 178.5 -45.5t119.5 -126.5q43 -82 43 -192
q0 -108 -42.5 -189t-119.5 -126q-76 -45 -179 -45zM374 105q55 0 101 22t74 64q28 40 33 101h-409q1 -56 26.5 -98t70.5 -65q45 -24 104 -24z" />
    <glyph glyph-name="florin" unicode="&#x192;" horiz-adv-x="334" 
d="M-54 -229l11 108h24q23 0 35 12t16 41l54 515h-62l10 106h64l3 35q10 97 69 141.5t171 44.5l-11 -108q-48 0 -72.5 -17.5t-28.5 -60.5l-3 -35h99l-10 -106h-101l-54 -515q-6 -60 -31 -95t-64.5 -50.5t-91.5 -15.5h-27z" />
    <glyph glyph-name="uni01CD" unicode="&#x1cd;" horiz-adv-x="694" 
d="M19 0l256 700h144l256 -700h-136l-55 159h-275l-56 -159h-134zM245 262h203l-102 291zM347 746l-146 80v92l146 -85l146 85v-92z" />
    <glyph glyph-name="uni01CE" unicode="&#x1ce;" horiz-adv-x="555" 
d="M197 -12q-44 0 -82 18t-61.5 51.5t-23.5 79.5q0 55 27 90t74.5 52t106.5 17h118q0 34 -10.5 57t-31 35.5t-50.5 12.5q-35 0 -62.5 -15.5t-33.5 -51.5h-128q5 54 37 93t82 60t107 21q70 0 118.5 -26t74.5 -73.5t26 -112.5v-151q2 -22 16 -30t37 -8v-107q-47 0 -78.5 9
t-51.5 26.5t-34 44.5q-23 -39 -71.5 -65.5t-105.5 -26.5zM234 91q33 0 60.5 15t44.5 42t17 62v4h-110q-22 0 -42 -6.5t-32 -20t-12 -36.5q0 -31 21.5 -45.5t52.5 -14.5zM266 554l-146 80v92l146 -85l146 85v-92z" />
    <glyph glyph-name="AEacute" unicode="&#x1fc;" horiz-adv-x="931" 
d="M19 0l379 700h483v-109h-271v-167h227v-109h-227v-206h271v-109h-399v136h-250l-74 -136h-139zM286 237h196v365zM433 740v90l226 122v-104z" />
    <glyph glyph-name="aeacute" unicode="&#x1fd;" horiz-adv-x="901" 
d="M225 -12q-54 0 -98.5 18t-70.5 52t-26 81t23 82t70.5 55t118.5 20h133q0 58 -28.5 83t-69.5 25q-37 0 -65 -18t-35 -53h-125q6 58 39 97t82.5 58.5t103.5 19.5q59 0 105 -18.5t74 -53.5q33 34 78.5 53t97.5 19q70 0 125.5 -30.5t88 -85t32.5 -128.5q0 -10 -0.5 -22
t-1.5 -26h-370q4 -39 21.5 -66.5t44.5 -42t59 -14.5q38 0 64 17t40 44h129q-14 -45 -45.5 -82.5t-78.5 -60.5t-108 -23q-65 0 -118.5 27t-87.5 75q-30 -44 -78 -73t-123 -29zM243 88q34 0 60.5 16t43.5 43.5t23 59.5v9h-112q-49 0 -71 -18t-22 -46q0 -29 21.5 -46.5
t56.5 -17.5zM508 296h241q-4 51 -36.5 79.5t-79.5 28.5q-45 0 -80 -27t-45 -81zM338 539v90l226 122v-104z" />
    <glyph glyph-name="uni0218" unicode="&#x218;" horiz-adv-x="589" 
d="M303 -12q-73 0 -132.5 25t-94.5 74.5t-37 123.5h135q2 -49 35.5 -82t92.5 -33q51 0 81 24t30 65q0 21 -6.5 37t-24.5 30t-50.5 27.5t-85.5 30.5q-69 23 -111 53t-60.5 67.5t-18.5 81.5q0 66 31.5 110.5t85 67t118.5 22.5q66 0 119.5 -23t86.5 -68t34 -111h-137
q-1 38 -29.5 66t-78.5 28q-40 0 -68 -21t-28 -62q0 -30 22.5 -51t61 -36.5t85.5 -32.5q26 -9 58.5 -23t62.5 -37.5t49.5 -59t19.5 -87.5q0 -64 -32.5 -110t-88 -71t-125.5 -25zM238 -274v52q50 0 50 62v15h-55v100h109q8 -26 11.5 -50.5t3.5 -45.5q0 -64 -30 -98.5
t-89 -34.5z" />
    <glyph glyph-name="uni0219" unicode="&#x219;" horiz-adv-x="474" 
d="M248 -12q-56 0 -105 20.5t-80.5 58.5t-34.5 89h128q5 -32 31.5 -50t59.5 -18q28 0 52.5 12.5t24.5 39.5q0 21 -18 33t-42 19t-44 12q-50 12 -91 28.5t-65 46t-24 78.5q0 48 27.5 82t73 51.5t98.5 17.5q83 0 140 -42t62 -124h-121q-3 32 -26.5 48.5t-58.5 16.5
q-28 0 -50 -10t-22 -38q0 -20 18 -32.5t43 -20t44 -12.5q52 -13 91.5 -30t62.5 -46t24 -78q0 -49 -27.5 -83t-72.5 -51.5t-98 -17.5zM189 -274v52q50 0 50 62v15h-55v100h109q8 -26 11.5 -50.5t3.5 -45.5q0 -64 -30 -98.5t-89 -34.5z" />
    <glyph glyph-name="uni021A" unicode="&#x21a;" horiz-adv-x="582" 
d="M227 0v591h-204v109h537v-109h-205v-591h-128zM235 -274v52q50 0 50 62v15h-55v100h109q8 -26 11.5 -50.5t3.5 -45.5q0 -64 -30 -98.5t-89 -34.5z" />
    <glyph glyph-name="uni021B" unicode="&#x21b;" horiz-adv-x="351" 
d="M240 0q-80 0 -120.5 39t-40.5 117v233h-64v107h64v121h128v-121h113v-107h-113v-234q0 -28 15 -38t39 -10h59v-107h-80zM162 -274v52q50 0 50 62v15h-55v100h109q8 -26 11.5 -50.5t3.5 -45.5q0 -64 -30 -98.5t-89 -34.5z" />
    <glyph glyph-name="uni0237" unicode="&#x237;" horiz-adv-x="228" 
d="M-37 -220v109h27q32 0 46.5 13t14.5 44v550h128v-550q0 -62 -22 -98.5t-60 -52t-87 -15.5h-47z" />
    <glyph glyph-name="uni0259" unicode="&#x259;" horiz-adv-x="553" 
d="M271 -12q-73 0 -129 32t-87.5 88t-31.5 129q0 14 1 26t3 23h368q-4 53 -36.5 85t-84.5 32q-35 0 -60.5 -15t-40.5 -46h-137q14 44 45 82t78.5 61t111.5 23q78 0 135 -34t87.5 -92.5t30.5 -133.5q0 -78 -32 -136.5t-88.5 -91t-132.5 -32.5zM275 93q41 0 76 25.5t43 82.5
h-239q2 -50 37 -79t83 -29z" />
    <glyph glyph-name="uni02B9" unicode="&#x2b9;" horiz-adv-x="189" 
d="M51 546l-12 209h112l-13 -209h-87z" />
    <glyph glyph-name="uni02BA" unicode="&#x2ba;" horiz-adv-x="348" 
d="M211 546l-12 209h110l-11 -209h-87zM50 546l-11 209h110l-12 -209h-87z" />
    <glyph glyph-name="circumflex" unicode="&#x2c6;" horiz-adv-x="500" 
d="M104 554v92l146 80l146 -80v-92l-146 82z" />
    <glyph glyph-name="caron" unicode="&#x2c7;" horiz-adv-x="500" 
d="M250 554l-146 80v92l146 -85l146 85v-92z" />
    <glyph glyph-name="breve" unicode="&#x2d8;" horiz-adv-x="500" 
d="M250 544q-72 0 -113.5 41t-41.5 111v16h68q0 -34 19.5 -53t68.5 -19q48 0 67.5 19t19.5 53h68v-17q0 -69 -42 -110t-114 -41z" />
    <glyph glyph-name="dotaccent" unicode="&#x2d9;" horiz-adv-x="500" 
d="M254 560q-35 0 -59 24t-24 59t24 59t59 24t59 -24t24 -59t-24 -59t-59 -24z" />
    <glyph glyph-name="ring" unicode="&#x2da;" horiz-adv-x="500" 
d="M249 545q-46 0 -79.5 30t-33.5 82t33.5 82t79.5 30q48 0 81.5 -30t33.5 -82t-33.5 -82t-81.5 -30zM249 603q23 0 38 15t15 39q0 25 -15 39.5t-38 14.5q-21 0 -36 -14.5t-15 -39.5q0 -24 15 -39t36 -15z" />
    <glyph glyph-name="ogonek" unicode="&#x2db;" horiz-adv-x="500" 
d="M273 -210q-54 0 -93.5 25t-39.5 79q0 40 30.5 76t109.5 70l46 20l29 -60l-52 -26q-36 -18 -51 -34t-15 -34q0 -19 14 -30t38 -11q32 0 71 15v-76q-19 -6 -41.5 -10t-45.5 -4z" />
    <glyph glyph-name="tilde" unicode="&#x2dc;" horiz-adv-x="500" 
d="M309 579q-27 0 -46 11.5t-36 23t-41 11.5q-18 0 -28.5 -11t-14.5 -34h-68q10 64 40.5 94t76.5 30q28 0 46.5 -11.5t36 -23t40.5 -11.5q17 0 28.5 11t14.5 34h68q-9 -64 -40.5 -94t-76.5 -30z" />
    <glyph glyph-name="hungarumlaut" unicode="&#x2dd;" horiz-adv-x="500" 
d="M242 544l81 179h105l-106 -179h-80zM72 544l71 179h104l-94 -179h-81z" />
    <glyph glyph-name="gravecomb" unicode="&#x300;" 
d="M226 539l-226 108v104l226 -122v-90z" />
    <glyph glyph-name="acutecomb" unicode="&#x301;" 
d="M0 539v90l226 122v-104z" />
    <glyph glyph-name="uni0302" unicode="&#x302;" 
d="M0 554v92l146 80l146 -80v-92l-146 82z" />
    <glyph glyph-name="tildecomb" unicode="&#x303;" 
d="M234 579q-27 0 -46 11.5t-36 23t-41 11.5q-18 0 -28.5 -11t-14.5 -34h-68q10 64 40.5 94t76.5 30q28 0 46.5 -11.5t36 -23t40.5 -11.5q17 0 28.5 11t14.5 34h68q-9 -64 -40.5 -94t-76.5 -30z" />
    <glyph glyph-name="uni0304" unicode="&#x304;" 
d="M0 599v91h354v-91h-354z" />
    <glyph glyph-name="uni0306" unicode="&#x306;" 
d="M155 544q-72 0 -113.5 41t-41.5 111v16h68q0 -34 19.5 -53t68.5 -19q48 0 67.5 19t19.5 53h68v-17q0 -69 -42 -110t-114 -41z" />
    <glyph glyph-name="uni0307" unicode="&#x307;" 
d="M83 560q-35 0 -59 24t-24 59t24 59t59 24t59 -24t24 -59t-24 -59t-59 -24z" />
    <glyph glyph-name="uni0308" unicode="&#x308;" 
d="M83 560q-35 0 -59 24t-24 59t24 59t59 24t59 -24t24 -59t-24 -59t-59 -24zM305 560q-35 0 -59 24t-24 59t24 59t59 24t59 -24t24 -59t-24 -59t-59 -24z" />
    <glyph glyph-name="uni030A" unicode="&#x30a;" 
d="M113 545q-46 0 -79.5 30t-33.5 82t33.5 82t79.5 30q48 0 81.5 -30t33.5 -82t-33.5 -82t-81.5 -30zM113 603q23 0 38 15t15 39q0 25 -15 39.5t-38 14.5q-21 0 -36 -14.5t-15 -39.5q0 -24 15 -39t36 -15z" />
    <glyph glyph-name="uni030B" unicode="&#x30b;" 
d="M170 544l81 179h105l-106 -179h-80zM0 544l71 179h104l-94 -179h-81z" />
    <glyph glyph-name="uni030C" unicode="&#x30c;" 
d="M146 554l-146 80v92l146 -85l146 85v-92z" />
    <glyph glyph-name="uni0312" unicode="&#x312;" 
d="M119 824v-52q-50 0 -50 -62v-15h55v-100h-109q-8 26 -11.5 50.5t-3.5 45.5q0 64 30 98.5t89 34.5z" />
    <glyph glyph-name="uni0326" unicode="&#x326;" 
d="M5 -274v52q50 0 50 62v15h-55v100h109q8 -26 11.5 -50.5t3.5 -45.5q0 -64 -30 -98.5t-89 -34.5z" />
    <glyph glyph-name="uni0327" unicode="&#x327;" 
d="M0 -263v74h112q53 0 53 36q0 35 -53 35h-61v135h80v-67q35 1 64.5 -10.5t47.5 -35t18 -59.5t-18 -60t-47.5 -36t-64.5 -12h-131z" />
    <glyph glyph-name="uni0328" unicode="&#x328;" 
d="M133 -210q-54 0 -93.5 25t-39.5 79q0 40 30.5 76t109.5 70l46 20l29 -60l-52 -26q-36 -18 -51 -34t-15 -34q0 -19 14 -30t38 -11q32 0 71 15v-76q-19 -6 -41.5 -10t-45.5 -4z" />
    <glyph glyph-name="uni0394" unicode="&#x394;" horiz-adv-x="711" 
d="M23 0v98l280 602h105l280 -602v-98h-665zM154 98h403l-202 457z" />
    <glyph glyph-name="Pi" unicode="&#x3a0;" horiz-adv-x="647" 
d="M107 0v398h-74v98h581v-98h-75v-398h-128v398h-176v-398h-128z" />
    <glyph glyph-name="uni03A9" unicode="&#x3a9;" horiz-adv-x="788" 
d="M48 0v98h117q-65 46 -95.5 115t-30.5 150q0 78 27 142t75 110.5t113 71.5t140 25q76 0 140.5 -25t113 -71t75.5 -110t27 -143q0 -81 -30.5 -150t-96.5 -115h117v-98h-272v102q45 20 79 55t53.5 84t19.5 109q0 58 -16.5 103.5t-47 77t-71.5 48t-91 16.5q-59 0 -101.5 -21
t-70 -56t-40.5 -79t-13 -89q0 -60 19.5 -109t53.5 -84t78 -55v-102h-272z" />
    <glyph glyph-name="uni03BC" unicode="&#x3bc;" horiz-adv-x="617" 
d="M65 -220v716h128v-268q0 -64 26.5 -98t81.5 -34q54 0 88 38t34 106v256h128v-496h-112l-10 84q-24 -44 -67 -70t-102 -26q-20 0 -36.5 4t-30.5 12v-224h-128z" />
    <glyph glyph-name="Wgrave" unicode="&#x1e80;" horiz-adv-x="997" 
d="M261 0l-243 700h131l189 -579l75 234l-121 345h129l78 -245l77 245h130l-122 -345l75 -234l189 579h131l-243 -700h-152l-85 254l-86 -254h-152zM612 740l-226 108v104l226 -122v-90z" />
    <glyph glyph-name="wgrave" unicode="&#x1e81;" horiz-adv-x="747" 
d="M145 0l-148 496h129l89 -377l96 377h135l94 -376l89 376h122l-147 -495h-137l-92 346l-92 -347h-138zM488 539l-226 108v104l226 -122v-90z" />
    <glyph glyph-name="Wacute" unicode="&#x1e82;" horiz-adv-x="997" 
d="M261 0l-243 700h131l189 -579l75 234l-121 345h129l78 -245l77 245h130l-122 -345l75 -234l189 579h131l-243 -700h-152l-85 254l-86 -254h-152zM386 740v90l226 122v-104z" />
    <glyph glyph-name="wacute" unicode="&#x1e83;" horiz-adv-x="747" 
d="M145 0l-148 496h129l89 -377l96 377h135l94 -376l89 376h122l-147 -495h-137l-92 346l-92 -347h-138zM262 539v90l226 122v-104z" />
    <glyph glyph-name="Wdieresis" unicode="&#x1e84;" horiz-adv-x="997" 
d="M261 0l-243 700h131l189 -579l75 234l-121 345h129l78 -245l77 245h130l-122 -345l75 -234l189 579h131l-243 -700h-152l-85 254l-86 -254h-152zM388 768q-35 0 -59 24t-24 59t24 59t59 24t59 -24t24 -59t-24 -59t-59 -24zM610 768q-35 0 -59 24t-24 59t24 59t59 24
t59 -24t24 -59t-24 -59t-59 -24z" />
    <glyph glyph-name="wdieresis" unicode="&#x1e85;" horiz-adv-x="747" 
d="M145 0l-148 496h129l89 -377l96 377h135l94 -376l89 376h122l-147 -495h-137l-92 346l-92 -347h-138zM264 560q-35 0 -59 24t-24 59t24 59t59 24t59 -24t24 -59t-24 -59t-59 -24zM486 560q-35 0 -59 24t-24 59t24 59t59 24t59 -24t24 -59t-24 -59t-59 -24z" />
    <glyph glyph-name="uni1E9E" unicode="&#x1e9e;" horiz-adv-x="667" 
d="M454 -10q-85 0 -146 45.5t-72 139.5h121q5 -42 30 -66t65 -24q35 0 57 16t22 50q0 27 -13 42.5t-34 25.5t-46 19q-36 13 -71.5 28.5t-59 40t-23.5 63.5q0 27 13 47t32 33q10 7 19 13t19 13q16 12 30 27.5t14 39.5q0 44 -34 63t-78 19q-43 0 -71 -15t-41 -43t-13 -68v-499
h-128v509q0 73 34 122.5t92.5 75t131.5 25.5q65 0 118 -20.5t84.5 -59.5t31.5 -96q0 -30 -12.5 -51t-31 -35.5t-37.5 -27.5q-14 -9 -29 -21.5t-15 -30.5q0 -15 10 -25.5t32.5 -20t59.5 -23.5q63 -23 102 -59t39 -103q0 -53 -26 -91t-71.5 -58t-104.5 -20z" />
    <glyph glyph-name="uni1EBC" unicode="&#x1ebc;" horiz-adv-x="562" 
d="M64 0v700h449v-109h-321v-167h275v-109h-275v-206h321v-109h-449zM339 752q-27 0 -46 11.5t-36 23t-41 11.5q-35 0 -43 -45h-68q10 64 40.5 94t76.5 30q28 0 46.5 -11.5t36 -23t40.5 -11.5q17 0 28.5 11t14.5 34h68q-9 -64 -40.5 -94t-76.5 -30z" />
    <glyph glyph-name="uni1EBD" unicode="&#x1ebd;" horiz-adv-x="553" 
d="M282 -12q-78 0 -134.5 34t-87.5 93t-31 133q0 79 32 137t89 90.5t132 32.5q74 0 129.5 -32t87 -88t31.5 -129q0 -13 -1 -25.5t-3 -23.5h-368q3 -35 18.5 -61.5t42 -41t60.5 -14.5q35 0 60.5 15t40.5 46h137q-14 -44 -45 -82t-78.5 -61t-111.5 -23zM159 295h239
q-1 50 -36.5 79t-83.5 29q-41 0 -76 -25.5t-43 -82.5zM335 579q-27 0 -46 11.5t-36 23t-41 11.5q-18 0 -28.5 -11t-14.5 -34h-68q10 64 40.5 94t76.5 30q28 0 46.5 -11.5t36 -23t40.5 -11.5q17 0 28.5 11t14.5 34h68q-9 -64 -40.5 -94t-76.5 -30z" />
    <glyph glyph-name="Ygrave" unicode="&#x1ef2;" horiz-adv-x="617" 
d="M245 0v281l-235 419h145l155 -291l154 291h143l-234 -419v-281h-128zM422 740l-226 108v104l226 -122v-90z" />
    <glyph glyph-name="ygrave" unicode="&#x1ef3;" horiz-adv-x="535" 
d="M91 -220l109 243l-201 473h143l128 -338l131 338h135l-310 -716h-135zM381 539l-226 108v104l226 -122v-90z" />
    <glyph glyph-name="uni1EF8" unicode="&#x1ef8;" horiz-adv-x="617" 
d="M245 0v281l-235 419h145l155 -291l154 291h143l-234 -419v-281h-128zM367 752q-27 0 -46 11.5t-36 23t-41 11.5q-35 0 -43 -45h-68q10 64 40.5 94t76.5 30q28 0 46.5 -11.5t36 -23t40.5 -11.5q17 0 28.5 11t14.5 34h68q-9 -64 -40.5 -94t-76.5 -30z" />
    <glyph glyph-name="uni1EF9" unicode="&#x1ef9;" horiz-adv-x="535" 
d="M91 -220l109 243l-201 473h143l128 -338l131 338h135l-310 -716h-135zM326 579q-27 0 -46 11.5t-36 23t-41 11.5q-18 0 -28.5 -11t-14.5 -34h-68q10 64 40.5 94t76.5 30q28 0 46.5 -11.5t36 -23t40.5 -11.5q17 0 28.5 11t14.5 34h68q-9 -64 -40.5 -94t-76.5 -30z" />
    <glyph glyph-name="endash" unicode="&#x2013;" horiz-adv-x="648" 
d="M54 236v107h540v-107h-540z" />
    <glyph glyph-name="emdash" unicode="&#x2014;" horiz-adv-x="868" 
d="M54 236v107h760v-107h-760z" />
    <glyph glyph-name="quoteleft" unicode="&#x2018;" horiz-adv-x="264" 
d="M33 454l102 246h87l-54 -246h-135z" />
    <glyph glyph-name="quoteright" unicode="&#x2019;" horiz-adv-x="264" 
d="M41 454l55 246h135l-102 -246h-88z" />
    <glyph glyph-name="quotesinglbase" unicode="&#x201a;" horiz-adv-x="240" 
d="M14 -113l55 246h135l-102 -246h-88z" />
    <glyph glyph-name="quotedblleft" unicode="&#x201c;" horiz-adv-x="456" 
d="M226 454l102 246h87l-55 -246h-134zM33 454l102 246h87l-54 -246h-135z" />
    <glyph glyph-name="quotedblright" unicode="&#x201d;" horiz-adv-x="456" 
d="M233 455l55 246h135l-102 -246h-88zM41 455l55 246h135l-102 -246h-88z" />
    <glyph glyph-name="quotedblbase" unicode="&#x201e;" horiz-adv-x="432" 
d="M14 -113l55 246h135l-102 -246h-88zM207 -113l55 246h134l-101 -246h-88z" />
    <glyph glyph-name="dagger" unicode="&#x2020;" horiz-adv-x="593" 
d="M232 -263l13 727l-199 -10v99l199 -11l-13 243h128l-13 -243l200 11v-99l-200 10l13 -727h-128z" />
    <glyph glyph-name="daggerdbl" unicode="&#x2021;" horiz-adv-x="594" 
d="M232 -263l14 243l-200 -11v99l200 -10v406l-200 -10v99l200 -11l-14 243h128l-12 -243l200 11v-99l-200 10v-406l200 10v-99l-200 11l12 -243h-128z" />
    <glyph glyph-name="bullet" unicode="&#x2022;" horiz-adv-x="380" 
d="M189 198q-37 0 -67.5 18t-49 49t-18.5 68q0 38 18.5 69t49 49t67.5 18q39 0 69.5 -18t48.5 -49t18 -69t-18 -68.5t-48.5 -48.5t-69.5 -18z" />
    <glyph glyph-name="ellipsis" unicode="&#x2026;" horiz-adv-x="687" 
d="M565 -12q-35 0 -59 24.5t-24 58.5q0 35 24 59t59 24t59 -24t24 -59q0 -34 -24 -58.5t-59 -24.5zM123 -12q-35 0 -59 24.5t-24 58.5q0 35 24 59t59 24t59 -24t24 -59q0 -34 -24 -58.5t-59 -24.5zM344 -12q-35 0 -59 24.5t-24 58.5q0 35 24 59t59 24t59 -24t24 -59
q0 -34 -24 -58.5t-59 -24.5z" />
    <glyph glyph-name="perthousand" unicode="&#x2030;" horiz-adv-x="1246" 
d="M174 0l395 700h125l-395 -700h-125zM212 356q-48 0 -87 21.5t-62 61.5q-23 41 -23 95q0 55 23 95t62 62q39 21 88 21q48 0 86.5 -21.5t61.5 -61.5q11 -20 17 -43.5t6 -51.5q0 -55 -23 -95t-62 -61q-38 -22 -87 -22zM212 444q30 0 50.5 23t20.5 67q0 45 -20.5 68t-50.5 23
t-51 -22.5t-21 -68.5q0 -44 20.5 -67t51.5 -23zM660 -12q-48 0 -87 21.5t-62 61.5q-23 41 -23 95q0 55 23 94.5t62 61.5q39 21 88 21q48 0 86.5 -21.5t61.5 -60.5q11 -20 17 -43.5t6 -51.5q0 -55 -23 -95t-61 -61q-38 -22 -88 -22zM660 76q30 0 51 23t21 67t-21 67.5
t-51 23.5t-51 -23.5t-21 -67.5t21 -67t51 -23zM1034 -12q-48 0 -87 21.5t-62 61.5q-23 41 -23 96q0 54 23 93.5t63 61.5q39 21 87 21t87.5 -21.5t61.5 -60.5q11 -20 16.5 -43.5t5.5 -51.5q0 -55 -23 -95t-61 -61q-38 -22 -88 -22zM1034 76q30 0 51 23t21 67t-21 67.5
t-51 23.5t-50.5 -23.5t-20.5 -67.5t20.5 -67t50.5 -23z" />
    <glyph glyph-name="guilsinglleft" unicode="&#x2039;" horiz-adv-x="303" 
d="M133 120l-91 175l91 175h120l-93 -175l93 -175h-120z" />
    <glyph glyph-name="guilsinglright" unicode="&#x203a;" horiz-adv-x="303" 
d="M50 120l93 175l-93 175h121l90 -175l-90 -175h-121z" />
    <glyph glyph-name="fraction" unicode="&#x2044;" horiz-adv-x="599" 
d="M-7 0l520 700h98l-520 -700h-98z" />
    <glyph glyph-name="uni2070" unicode="&#x2070;" horiz-adv-x="324" 
d="M162 342q-49 0 -78.5 25t-42.5 66.5t-13 90.5t13 90t42.5 66t78.5 25q50 0 79 -24.5t42 -65.5t13 -91t-13 -91.5t-42 -66t-79 -24.5zM162 412q18 0 29 10.5t17 27.5t8 36.5t2 37.5q0 24 -4 50t-16 43.5t-36 17.5q-13 0 -26 -8.5t-22 -32.5t-9 -70t9 -70.5t22 -33t26 -8.5
z" />
    <glyph glyph-name="uni2074" unicode="&#x2074;" horiz-adv-x="304" 
d="M174 347v63h-155v58l116 232h76l-109 -222h76v88h71v-88h40v-68h-40v-63h-75z" />
    <glyph glyph-name="uni2075" unicode="&#x2075;" horiz-adv-x="312" 
d="M156 342q-57 0 -91.5 29t-39.5 81h76q4 -19 19 -30.5t36 -11.5q23 0 38.5 17t15.5 44q0 26 -15 42t-38 16q-19 0 -33 -9t-22 -28h-73l31 208h201v-69h-142l-10 -52q12 8 27 11.5t31 3.5q57 0 87 -36.5t30 -86.5q0 -56 -36 -92.5t-92 -36.5z" />
    <glyph glyph-name="uni2076" unicode="&#x2076;" horiz-adv-x="312" 
d="M165 342q-48 0 -78 24t-44.5 62.5t-14.5 83.5q0 47 13 91t43 73t79 29q51 0 80.5 -29.5t34.5 -74.5h-72q-4 19 -14.5 28.5t-28.5 9.5q-30 0 -42.5 -27.5t-15.5 -60.5q14 14 32.5 21.5t37.5 7.5q26 0 51 -13t41.5 -38.5t16.5 -65.5q0 -32 -14.5 -60t-41.5 -44.5t-63 -16.5
zM162 410q21 0 34.5 14.5t13.5 36.5q0 23 -13.5 37.5t-35.5 14.5q-21 0 -35 -14.5t-14 -36.5t14 -37t36 -15z" />
    <glyph glyph-name="uni2077" unicode="&#x2077;" horiz-adv-x="318" 
d="M71 346l134 285h-177v68h262v-53l-138 -300h-81z" />
    <glyph glyph-name="uni2078" unicode="&#x2078;" horiz-adv-x="304" 
d="M152 342q-36 0 -64.5 14t-44.5 38t-16 55q0 29 12.5 51.5t34.5 35.5q-19 13 -29 31.5t-10 40.5q0 47 35 72t82 25q32 0 58.5 -11t42.5 -32.5t16 -53.5q0 -22 -10.5 -41t-28.5 -31q24 -13 35.5 -36.5t11.5 -50.5q0 -34 -17.5 -58t-46 -36.5t-61.5 -12.5zM152 409
q22 0 35.5 11.5t13.5 33.5q0 23 -12.5 35t-36.5 12q-23 0 -36 -12t-13 -35q0 -22 13 -33.5t36 -11.5zM152 562q19 0 30 10.5t11 27.5q0 19 -10.5 29.5t-30.5 10.5q-41 0 -41 -40q0 -17 11 -27.5t30 -10.5z" />
    <glyph glyph-name="uni2079" unicode="&#x2079;" horiz-adv-x="313" 
d="M150 342q-51 0 -80.5 30t-34.5 76h72q4 -20 14.5 -30t28.5 -10q30 0 42.5 27.5t15.5 60.5q-13 -13 -31.5 -21t-38.5 -8q-31 0 -56 15.5t-39.5 42.5t-14.5 59t15 59.5t42 44.5t63 17q48 0 78.5 -23.5t44.5 -62.5t14 -84q0 -48 -13.5 -92t-43.5 -72.5t-78 -28.5zM152 534
q21 0 35 14.5t14 36.5q0 23 -14 37.5t-36 14.5q-21 0 -34.5 -14t-13.5 -37t13.5 -37.5t35.5 -14.5z" />
    <glyph glyph-name="uni2080" unicode="&#x2080;" horiz-adv-x="324" 
d="M162 -5q-49 0 -78.5 25t-42.5 66.5t-13 90.5t13 90t42.5 66t78.5 25q50 0 79 -24.5t42 -65.5t13 -91t-13 -91.5t-42 -66t-79 -24.5zM162 65q18 0 29 10.5t17 27.5t8 36.5t2 37.5q0 24 -4 50t-16 43.5t-36 17.5q-13 0 -26 -8.5t-22 -32.5t-9 -70t9 -70.5t22 -33t26 -8.5z
" />
    <glyph glyph-name="uni2081" unicode="&#x2081;" horiz-adv-x="316" 
d="M40 0v68h90v199l-87 -20v62l120 44h41v-285h80v-68h-244z" />
    <glyph glyph-name="uni2082" unicode="&#x2082;" horiz-adv-x="311" 
d="M30 0v55q19 20 33.5 35t25.5 26.5t19 20t14.5 15l12.5 12.5q25 26 42 46.5t17 37.5q0 20 -11 31.5t-31 11.5q-25 0 -35.5 -16.5t-10.5 -35.5h-75q2 57 35 88t87 31q53 0 84.5 -28t31.5 -81q0 -36 -20.5 -63t-51.5 -58l-59 -60h140v-68h-248z" />
    <glyph glyph-name="uni2083" unicode="&#x2083;" horiz-adv-x="316" 
d="M159 -5q-57 0 -93 30t-36 87h75q0 -22 14.5 -35.5t39.5 -13.5t39 13t14 38q0 24 -15.5 36.5t-37.5 12.5q-8 0 -17 -2.5t-20 -9.5l-43 50l93 84h-132v68h235v-62l-76 -69q40 -8 63.5 -37t23.5 -70q0 -55 -34.5 -87.5t-92.5 -32.5z" />
    <glyph glyph-name="uni2084" unicode="&#x2084;" horiz-adv-x="304" 
d="M173 0v63h-154v59l116 231h78l-109 -221h73v88h73v-88h39v-69h-39v-63h-77z" />
    <glyph glyph-name="uni2085" unicode="&#x2085;" horiz-adv-x="312" 
d="M156 -5q-57 0 -91.5 29t-39.5 81h76q4 -19 19 -30.5t36 -11.5q23 0 38.5 17t15.5 44q0 26 -15 42t-38 16q-19 0 -33 -9t-22 -28h-73l31 208h201v-69h-142l-10 -52q12 8 27 11.5t31 3.5q57 0 87 -36.5t30 -86.5q0 -56 -36 -92.5t-92 -36.5z" />
    <glyph glyph-name="uni2086" unicode="&#x2086;" horiz-adv-x="312" 
d="M165 -5q-48 0 -78 24t-44.5 62.5t-14.5 83.5q0 47 13 91t43 73t79 29q51 0 80.5 -29.5t34.5 -74.5h-72q-4 19 -14.5 28.5t-28.5 9.5q-30 0 -42.5 -27.5t-15.5 -60.5q14 14 32.5 21.5t37.5 7.5q26 0 51 -13t41.5 -38.5t16.5 -65.5q0 -32 -14.5 -60t-41.5 -44.5t-63 -16.5z
M162 63q21 0 34.5 14.5t13.5 36.5q0 23 -13.5 37.5t-35.5 14.5q-21 0 -35 -14.5t-14 -36.5t14 -37t36 -15z" />
    <glyph glyph-name="uni2087" unicode="&#x2087;" horiz-adv-x="318" 
d="M71 -1l134 285h-177v68h262v-53l-138 -300h-81z" />
    <glyph glyph-name="uni2088" unicode="&#x2088;" horiz-adv-x="304" 
d="M152 -5q-36 0 -64.5 14t-44.5 38t-16 55q0 29 12.5 51.5t34.5 35.5q-19 13 -29 31.5t-10 40.5q0 47 35 72t82 25q32 0 58.5 -11t42.5 -32.5t16 -53.5q0 -22 -10.5 -41t-28.5 -31q24 -13 35.5 -36.5t11.5 -50.5q0 -34 -17.5 -58t-46 -36.5t-61.5 -12.5zM152 62
q22 0 35.5 11.5t13.5 33.5q0 23 -12.5 35t-36.5 12q-23 0 -36 -12t-13 -35q0 -22 13 -33.5t36 -11.5zM152 215q19 0 30 10.5t11 27.5q0 19 -10.5 29.5t-30.5 10.5q-41 0 -41 -40q0 -17 11 -27.5t30 -10.5z" />
    <glyph glyph-name="uni2089" unicode="&#x2089;" horiz-adv-x="313" 
d="M150 -5q-51 0 -80.5 30t-34.5 76h72q4 -20 14.5 -30t28.5 -10q30 0 42.5 27.5t15.5 60.5q-13 -13 -31.5 -21t-38.5 -8q-31 0 -56 15.5t-39.5 42.5t-14.5 59t15 59.5t42 44.5t63 17q48 0 78.5 -23.5t44.5 -62.5t14 -84q0 -48 -13.5 -92.5t-43.5 -72.5t-78 -28zM152 187
q21 0 35 14.5t14 36.5q0 23 -14 37.5t-36 14.5q-21 0 -34.5 -14t-13.5 -37t13.5 -37.5t35.5 -14.5z" />
    <glyph glyph-name="uni20A8" unicode="&#x20a8;" horiz-adv-x="1049" 
d="M64 0v700h243q73 0 126.5 -23.5t83.5 -68.5t30 -110q0 -75 -40 -120t-109 -62l195 -316h-151l-172 295h-78v-295h-128zM192 404h112q45 0 69.5 12.5t34 33.5t9.5 48t-9.5 48t-34 33t-69.5 12h-112v-187zM823 -12q-56 0 -105 20.5t-80.5 58.5t-34.5 89h128q5 -32 31.5 -50
t59.5 -18q28 0 52.5 12.5t24.5 39.5q0 21 -18 33t-42 19t-44 12q-50 12 -91 28.5t-65 46t-24 78.5q0 48 27.5 82t73 51.5t98.5 17.5q83 0 140 -42t62 -124h-121q-3 32 -26.5 48.5t-58.5 16.5q-28 0 -50 -10t-22 -38q0 -20 18 -32.5t43 -20t44 -12.5q52 -13 91.5 -30
t62.5 -46t24 -78q0 -49 -27.5 -83t-72.5 -51.5t-98 -17.5z" />
    <glyph glyph-name="Euro" unicode="&#x20ac;" horiz-adv-x="790" 
d="M437 -12q-129 0 -214 67.5t-113 181.5h-89v76h78q-1 9 -1.5 18t-0.5 18q0 10 0.5 19t1.5 18h-78v77h90q28 113 112.5 181t213.5 68q126 0 206.5 -62.5t100.5 -175.5h-141q-13 57 -55.5 89.5t-111.5 32.5q-71 0 -119.5 -35t-71.5 -98h208v-77h-224q-1 -9 -1 -18v-19v-19
t1 -17h224v-76h-208q22 -64 71 -99t120 -35q69 0 111.5 30.5t55.5 84.5h141q-20 -108 -100.5 -169t-206.5 -61z" />
    <glyph glyph-name="uni20BD" unicode="&#x20bd;" horiz-adv-x="657" 
d="M119 0v102h-90v109h90v68h-90v109h90v312h259q73 0 128.5 -24.5t87.5 -71.5t32 -114t-32 -114.5t-87.5 -72t-128.5 -24.5h-131v-68h189v-109h-189v-102h-128zM247 388h128q67 0 94 28.5t27 73.5q0 44 -27 72.5t-94 28.5h-128v-203z" />
    <glyph glyph-name="uni2113" unicode="&#x2113;" horiz-adv-x="264" 
d="M68 -100v820h128v-820h-128z" />
    <glyph glyph-name="trademark" unicode="&#x2122;" horiz-adv-x="750" 
d="M352 350v350h85l91 -208l90 208h85v-350h-76v202l-71 -159h-58l-70 159v-202h-76zM125 350v284h-98v66h273v-66h-99v-284h-76z" />
    <glyph glyph-name="uni2126" unicode="&#x2126;" horiz-adv-x="788" 
d="M48 0v98h117q-65 46 -95.5 115t-30.5 150q0 78 27 142t75 110.5t113 71.5t140 25q76 0 140.5 -25t113 -71t75.5 -110t27 -143q0 -81 -30.5 -150t-96.5 -115h117v-98h-272v102q45 20 79 55t53.5 84t19.5 109q0 58 -16.5 103.5t-47 77t-71.5 48t-91 16.5q-59 0 -101.5 -21
t-70 -56t-40.5 -79t-13 -89q0 -60 19.5 -109t53.5 -84t78 -55v-102h-272z" />
    <glyph glyph-name="estimated" unicode="&#x212e;" horiz-adv-x="755" 
d="M386 -12q-100 0 -179 40.5t-124 116.5q-47 76 -47 188q0 107 39.5 193t115.5 136q75 50 186 50q83 0 147 -27.5t107 -74.5q43 -46 65 -106t22 -124v-63h-519v-174q37 -37 82 -56.5t105 -19.5q77 0 136.5 32t117.5 90l50 -57q-64 -67 -139.5 -105.5t-164.5 -38.5zM199 393
h351v175q-31 32 -74 49t-99 17q-57 0 -101.5 -19t-76.5 -56v-166z" />
    <glyph glyph-name="oneeighth" unicode="&#x215b;" horiz-adv-x="765" 
d="M81 -1l520 700h98l-520 -700h-98zM35 347v68h90v199l-87 -20v62l120 44h41v-285h80v-68h-244zM594 62q22 0 35.5 11.5t13.5 33.5q0 23 -12.5 35t-36.5 12q-23 0 -36 -12t-13 -35q0 -22 13 -33.5t36 -11.5zM594 -5q-36 0 -64.5 14t-44.5 38t-16 55q0 29 12.5 51.5
t34.5 35.5q-19 13 -29 31.5t-10 40.5q0 47 35 72t82 25q32 0 58.5 -11t42.5 -32.5t16 -53.5q0 -22 -10.5 -41t-28.5 -31q24 -13 35.5 -36.5t11.5 -50.5q0 -34 -17.5 -58t-46 -36.5t-61.5 -12.5zM594 215q19 0 30 10.5t11 27.5q0 19 -10.5 29.5t-30.5 10.5q-41 0 -41 -40
q0 -17 11 -27.5t30 -10.5z" />
    <glyph glyph-name="threeeighths" unicode="&#x215c;" horiz-adv-x="760" 
d="M79 -1l520 700h98l-520 -700h-98zM169 342q-57 0 -93 30t-36 87h75q0 -22 14.5 -35.5t39.5 -13.5t39 13t14 38q0 24 -15.5 36.5t-37.5 12.5q-8 0 -17 -2.5t-20 -9.5l-43 50l93 84h-132v68h235v-62l-76 -69q40 -8 63.5 -37t23.5 -70q0 -55 -34.5 -87.5t-92.5 -32.5z
M594 62q22 0 35.5 11.5t13.5 33.5q0 23 -12.5 35t-36.5 12q-23 0 -36 -12t-13 -35q0 -22 13 -33.5t36 -11.5zM594 -5q-36 0 -64.5 14t-44.5 38t-16 55q0 29 12.5 51.5t34.5 35.5q-19 13 -29 31.5t-10 40.5q0 47 35 72t82 25q32 0 58.5 -11t42.5 -32.5t16 -53.5
q0 -22 -10.5 -41t-28.5 -31q24 -13 35.5 -36.5t11.5 -50.5q0 -34 -17.5 -58t-46 -36.5t-61.5 -12.5zM594 215q19 0 30 10.5t11 27.5q0 19 -10.5 29.5t-30.5 10.5q-41 0 -41 -40q0 -17 11 -27.5t30 -10.5z" />
    <glyph glyph-name="fiveeighths" unicode="&#x215d;" horiz-adv-x="764" 
d="M82 -1l520 700h99l-520 -700h-99zM170 342q-57 0 -91.5 29t-39.5 81h76q4 -19 19 -30.5t36 -11.5q23 0 38.5 17t15.5 44q0 26 -15 42t-38 16q-19 0 -33 -9t-22 -28h-73l31 208h201v-69h-142l-10 -52q12 8 27 11.5t31 3.5q57 0 87 -36.5t30 -86.5q0 -56 -36 -92.5
t-92 -36.5zM598 62q22 0 35.5 11.5t13.5 33.5q0 23 -12.5 35t-36.5 12q-23 0 -36 -12t-13 -35q0 -22 13 -33.5t36 -11.5zM598 -5q-36 0 -64.5 14t-44.5 38t-16 55q0 29 12.5 51.5t34.5 35.5q-19 13 -29 31.5t-10 40.5q0 47 35 72t82 25q32 0 58.5 -11t42.5 -32.5t16 -53.5
q0 -22 -10.5 -41t-28.5 -31q24 -13 35.5 -36.5t11.5 -50.5q0 -34 -17.5 -58t-46 -36.5t-61.5 -12.5zM598 215q19 0 30 10.5t11 27.5q0 19 -10.5 29.5t-30.5 10.5q-41 0 -41 -40q0 -17 11 -27.5t30 -10.5z" />
    <glyph glyph-name="seveneighths" unicode="&#x215e;" horiz-adv-x="740" 
d="M50 -1l520 700h99l-520 -700h-99zM578 62q22 0 35.5 11.5t13.5 33.5q0 23 -12.5 35t-36.5 12q-23 0 -36 -12t-13 -35q0 -22 13 -33.5t36 -11.5zM94 346l134 285h-177v68h262v-53l-138 -300h-81zM578 -5q-36 0 -64.5 14t-44.5 38t-16 55q0 29 12.5 51.5t34.5 35.5
q-19 13 -29 31.5t-10 40.5q0 47 35 72t82 25q32 0 58.5 -11t42.5 -32.5t16 -53.5q0 -22 -10.5 -41t-28.5 -31q24 -13 35.5 -36.5t11.5 -50.5q0 -34 -17.5 -58t-46 -36.5t-61.5 -12.5zM578 215q19 0 30 10.5t11 27.5q0 19 -10.5 29.5t-30.5 10.5q-41 0 -41 -40
q0 -17 11 -27.5t30 -10.5z" />
    <glyph glyph-name="partialdiff" unicode="&#x2202;" horiz-adv-x="591" 
d="M251 -8q-58 0 -107 26t-78 80q-29 55 -29 137q0 66 19.5 124.5t55.5 103.5t85.5 70.5t108.5 25.5q40 0 72.5 -17t51.5 -61q-4 54 -20.5 95.5t-49.5 65.5t-85 24q-16 0 -34.5 -2.5t-38.5 -7.5v69q29 8 55 11.5t51 3.5q119 0 183 -87.5t64 -243.5q0 -130 -39 -223.5
t-107 -143.5q-70 -50 -158 -50zM264 101q45 0 79 30t53 80q18 50 18 110q0 67 -27 99t-72 32q-44 0 -78 -28.5t-52 -77.5q-19 -48 -19 -110q0 -71 28.5 -103t69.5 -32z" />
    <glyph glyph-name="uni2206" unicode="&#x2206;" horiz-adv-x="711" 
d="M23 0v98l280 602h105l280 -602v-98h-665zM154 98h403l-202 457z" />
    <glyph glyph-name="product" unicode="&#x220f;" horiz-adv-x="736" 
d="M103 0v602h-74v98h679v-98h-75v-602h-128v602h-274v-602h-128z" />
    <glyph glyph-name="summation" unicode="&#x2211;" horiz-adv-x="493" 
d="M43 -50v149l249 231l-248 222v148h424v-98h-321l265 -225v-93l-260 -236h315v-98h-424z" />
    <glyph glyph-name="minus" unicode="&#x2212;" horiz-adv-x="600" 
d="M91 236v107h419v-107h-419z" />
    <glyph glyph-name="uni2215" unicode="&#x2215;" horiz-adv-x="421" 
d="M23 -111l250 888h125l-251 -888h-124z" />
    <glyph glyph-name="radical" unicode="&#x221a;" horiz-adv-x="782" 
d="M265 -42l-136 240l-73 -42l-37 62l184 108l124 -220l426 779h82l-508 -927h-62z" />
    <glyph glyph-name="infinity" unicode="&#x221e;" horiz-adv-x="740" 
d="M196 128q-70 0 -116.5 41.5t-46.5 115.5q0 51 22.5 87.5t60 55.5t83.5 19q61 0 102 -29t72 -68q26 42 69 69.5t102 27.5q70 0 116.5 -41.5t46.5 -115.5q0 -52 -22.5 -88t-60.5 -55t-85 -19q-59 0 -100.5 27.5t-73.5 64.5q-27 -39 -69.5 -65.5t-99.5 -26.5zM206 216
q32 0 60 17.5t48 48.5q-26 32 -51.5 55t-58.5 23q-29 0 -48.5 -19.5t-19.5 -53.5t19.5 -52.5t50.5 -18.5zM531 215q33 0 53 19.5t20 53.5t-19.5 52.5t-50.5 18.5q-33 0 -62.5 -19.5t-49.5 -53.5q24 -29 49.5 -50t59.5 -21z" />
    <glyph glyph-name="integral" unicode="&#x222b;" horiz-adv-x="275" 
d="M-44 -229l11 108h19q22 0 32 12t13 41l90 838q6 60 30.5 95t63.5 49.5t89 14.5h20l-11 -109h-18q-20 0 -31.5 -11.5t-14.5 -38.5l-90 -838q-6 -60 -30 -95t-62.5 -50.5t-90.5 -15.5h-20z" />
    <glyph glyph-name="approxequal" unicode="&#x2248;" horiz-adv-x="600" 
d="M387 315q-29 0 -52.5 10t-44 23.5t-41 23.5t-43.5 10q-28 0 -44 -16.5t-21 -49.5h-95q16 94 60 136.5t107 42.5q29 0 53 -10t44.5 -23t41 -23t43.5 -10q26 0 43 17t21 49h96q-15 -94 -59 -137t-109 -43zM387 87q-29 0 -52.5 10t-44 23.5t-41 23.5t-43.5 10
q-28 0 -44 -16.5t-21 -49.5h-95q16 94 60 136.5t107 42.5q29 0 53 -10t44.5 -23t41 -23t43.5 -10q26 0 43 17t21 49h96q-15 -94 -59 -137t-109 -43z" />
    <glyph glyph-name="notequal" unicode="&#x2260;" horiz-adv-x="600" 
d="M126 56l36 67h-74v112h133l57 109h-190v112h249l36 67h100l-35 -67h74v-112h-133l-58 -109h191v-112h-249l-36 -67h-101z" />
    <glyph glyph-name="lessequal" unicode="&#x2264;" horiz-adv-x="600" 
d="M331 207l-224 188l224 189h163l-223 -188l223 -189h-163zM118 44v98h374v-98h-374z" />
    <glyph glyph-name="greaterequal" unicode="&#x2265;" horiz-adv-x="600" 
d="M107 207l222 189l-222 188h162l225 -189l-225 -188h-162zM108 44v98h374v-98h-374z" />
    <glyph glyph-name="lozenge" unicode="&#x25ca;" horiz-adv-x="559" 
d="M280 100l-251 251l251 251l251 -251zM280 228l122 123l-122 123l-122 -123z" />
    <glyph glyph-name="uniA78B" unicode="&#xa78b;" horiz-adv-x="257" 
d="M74 210l-14 490h137l-15 -490h-108z" />
    <glyph glyph-name="uniA78C" unicode="&#xa78c;" horiz-adv-x="257" 
d="M79 330l-19 370h137l-20 -370h-98z" />
    <glyph glyph-name="uni004A0301" horiz-adv-x="524" 
d="M247 -12q-102 0 -163.5 57.5t-61.5 163.5h128q1 -49 23 -78t71 -29q46 0 67 27.5t21 72.5v498h128v-498q0 -103 -57.5 -158.5t-155.5 -55.5zM284 740v90l226 122v-104z" />
    <glyph glyph-name="i.loclTRK" horiz-adv-x="219" 
d="M45 0v496h128v-496h-128zM110 560q-35 0 -59 24t-24 59t24 59t59 24t59 -24t24 -59t-24 -59t-59 -24z" />
    <glyph glyph-name="uni006A0301" horiz-adv-x="228" 
d="M-37 -220v109h27q32 0 46.5 13t14.5 44v550h128v-550q0 -62 -22 -98.5t-60 -52t-87 -15.5h-47zM1 539v90l226 122v-104z" />
    <glyph glyph-name="zero.dnom" horiz-adv-x="324" 
d="M162 -5q-49 0 -78.5 25t-42.5 66.5t-13 90.5t13 90t42.5 66t78.5 25q50 0 79 -24.5t42 -65.5t13 -91t-13 -91.5t-42 -66t-79 -24.5zM162 65q18 0 29 10.5t17 27.5t8 36.5t2 37.5q0 24 -4 50t-16 43.5t-36 17.5q-13 0 -26 -8.5t-22 -32.5t-9 -70t9 -70.5t22 -33t26 -8.5z
" />
    <glyph glyph-name="one.dnom" horiz-adv-x="316" 
d="M40 0v68h90v199l-87 -20v62l120 44h41v-285h80v-68h-244z" />
    <glyph glyph-name="two.dnom" horiz-adv-x="311" 
d="M30 0v55q19 20 33.5 35t25.5 26.5t19 20t14.5 15l12.5 12.5q25 26 42 46.5t17 37.5q0 20 -11 31.5t-31 11.5q-25 0 -35.5 -16.5t-10.5 -35.5h-75q2 57 35 88t87 31q53 0 84.5 -28t31.5 -81q0 -36 -20.5 -63t-51.5 -58l-59 -60h140v-68h-248z" />
    <glyph glyph-name="three.dnom" horiz-adv-x="316" 
d="M159 -5q-57 0 -93 30t-36 87h75q0 -22 14.5 -35.5t39.5 -13.5t39 13t14 38q0 24 -15.5 36.5t-37.5 12.5q-8 0 -17 -2.5t-20 -9.5l-43 50l93 84h-132v68h235v-62l-76 -69q40 -8 63.5 -37t23.5 -70q0 -55 -34.5 -87.5t-92.5 -32.5z" />
    <glyph glyph-name="four.dnom" horiz-adv-x="304" 
d="M173 0v63h-154v59l116 231h78l-109 -221h73v88h73v-88h39v-69h-39v-63h-77z" />
    <glyph glyph-name="five.dnom" horiz-adv-x="312" 
d="M156 -5q-57 0 -91.5 29t-39.5 81h76q4 -19 19 -30.5t36 -11.5q23 0 38.5 17t15.5 44q0 26 -15 42t-38 16q-19 0 -33 -9t-22 -28h-73l31 208h201v-69h-142l-10 -52q12 8 27 11.5t31 3.5q57 0 87 -36.5t30 -86.5q0 -56 -36 -92.5t-92 -36.5z" />
    <glyph glyph-name="six.dnom" horiz-adv-x="312" 
d="M165 -5q-48 0 -78 24t-44.5 62.5t-14.5 83.5q0 47 13 91t43 73t79 29q51 0 80.5 -29.5t34.5 -74.5h-72q-4 19 -14.5 28.5t-28.5 9.5q-30 0 -42.5 -27.5t-15.5 -60.5q14 14 32.5 21.5t37.5 7.5q26 0 51 -13t41.5 -38.5t16.5 -65.5q0 -32 -14.5 -60t-41.5 -44.5t-63 -16.5z
M162 63q21 0 34.5 14.5t13.5 36.5q0 23 -13.5 37.5t-35.5 14.5q-21 0 -35 -14.5t-14 -36.5t14 -37t36 -15z" />
    <glyph glyph-name="seven.dnom" horiz-adv-x="318" 
d="M71 -1l134 285h-177v68h262v-53l-138 -300h-81z" />
    <glyph glyph-name="eight.dnom" horiz-adv-x="304" 
d="M152 -5q-36 0 -64.5 14t-44.5 38t-16 55q0 29 12.5 51.5t34.5 35.5q-19 13 -29 31.5t-10 40.5q0 47 35 72t82 25q32 0 58.5 -11t42.5 -32.5t16 -53.5q0 -22 -10.5 -41t-28.5 -31q24 -13 35.5 -36.5t11.5 -50.5q0 -34 -17.5 -58t-46 -36.5t-61.5 -12.5zM152 62
q22 0 35.5 11.5t13.5 33.5q0 23 -12.5 35t-36.5 12q-23 0 -36 -12t-13 -35q0 -22 13 -33.5t36 -11.5zM152 215q19 0 30 10.5t11 27.5q0 19 -10.5 29.5t-30.5 10.5q-41 0 -41 -40q0 -17 11 -27.5t30 -10.5z" />
    <glyph glyph-name="nine.dnom" horiz-adv-x="313" 
d="M150 -5q-51 0 -80.5 30t-34.5 76h72q4 -20 14.5 -30t28.5 -10q30 0 42.5 27.5t15.5 60.5q-13 -13 -31.5 -21t-38.5 -8q-31 0 -56 15.5t-39.5 42.5t-14.5 59t15 59.5t42 44.5t63 17q48 0 78.5 -23.5t44.5 -62.5t14 -84q0 -48 -13.5 -92.5t-43.5 -72.5t-78 -28zM152 187
q21 0 35 14.5t14 36.5q0 23 -14 37.5t-36 14.5q-21 0 -34.5 -14t-13.5 -37t13.5 -37.5t35.5 -14.5z" />
    <glyph glyph-name="zero.numr" horiz-adv-x="324" 
d="M162 342q-49 0 -78.5 25t-42.5 66.5t-13 90.5t13 90t42.5 66t78.5 25q50 0 79 -24.5t42 -65.5t13 -91t-13 -91.5t-42 -66t-79 -24.5zM162 412q18 0 29 10.5t17 27.5t8 36.5t2 37.5q0 24 -4 50t-16 43.5t-36 17.5q-13 0 -26 -8.5t-22 -32.5t-9 -70t9 -70.5t22 -33t26 -8.5
z" />
    <glyph glyph-name="one.numr" horiz-adv-x="316" 
d="M40 347v68h90v199l-87 -20v62l120 44h41v-285h80v-68h-244z" />
    <glyph glyph-name="two.numr" horiz-adv-x="311" 
d="M30 347v55q19 20 33.5 35t25.5 26.5t19 20t14.5 15l12.5 12.5q25 26 42 46.5t17 37.5q0 20 -11 31.5t-31 11.5q-25 0 -35.5 -16.5t-10.5 -35.5h-75q2 57 35 88t87 31q53 0 84.5 -28t31.5 -81q0 -36 -20.5 -63t-51.5 -58l-59 -60h140v-68h-248z" />
    <glyph glyph-name="three.numr" horiz-adv-x="316" 
d="M159 342q-57 0 -93 30t-36 87h75q0 -22 14.5 -35.5t39.5 -13.5t39 13t14 38q0 24 -15.5 36.5t-37.5 12.5q-8 0 -17 -2.5t-20 -9.5l-43 50l93 84h-132v68h235v-62l-76 -69q40 -8 63.5 -37t23.5 -70q0 -55 -34.5 -87.5t-92.5 -32.5z" />
    <glyph glyph-name="four.numr" horiz-adv-x="304" 
d="M173 347v63h-154v59l116 231h78l-109 -221h73v88h73v-88h39v-69h-39v-63h-77z" />
    <glyph glyph-name="five.numr" horiz-adv-x="312" 
d="M156 342q-57 0 -91.5 29t-39.5 81h76q4 -19 19 -30.5t36 -11.5q23 0 38.5 17t15.5 44q0 26 -15 42t-38 16q-19 0 -33 -9t-22 -28h-73l31 208h201v-69h-142l-10 -52q12 8 27 11.5t31 3.5q57 0 87 -36.5t30 -86.5q0 -56 -36 -92.5t-92 -36.5z" />
    <glyph glyph-name="six.numr" horiz-adv-x="312" 
d="M165 342q-48 0 -78 24t-44.5 62.5t-14.5 83.5q0 47 13 91t43 73t79 29q51 0 80.5 -29.5t34.5 -74.5h-72q-4 19 -14.5 28.5t-28.5 9.5q-30 0 -42.5 -27.5t-15.5 -60.5q14 14 32.5 21.5t37.5 7.5q26 0 51 -13t41.5 -38.5t16.5 -65.5q0 -32 -14.5 -60t-41.5 -44.5t-63 -16.5
zM162 410q21 0 34.5 14.5t13.5 36.5q0 23 -13.5 37.5t-35.5 14.5q-21 0 -35 -14.5t-14 -36.5t14 -37t36 -15z" />
    <glyph glyph-name="seven.numr" horiz-adv-x="318" 
d="M71 346l134 285h-177v68h262v-53l-138 -300h-81z" />
    <glyph glyph-name="eight.numr" horiz-adv-x="304" 
d="M152 342q-36 0 -64.5 14t-44.5 38t-16 55q0 29 12.5 51.5t34.5 35.5q-19 13 -29 31.5t-10 40.5q0 47 35 72t82 25q32 0 58.5 -11t42.5 -32.5t16 -53.5q0 -22 -10.5 -41t-28.5 -31q24 -13 35.5 -36.5t11.5 -50.5q0 -34 -17.5 -58t-46 -36.5t-61.5 -12.5zM152 409
q22 0 35.5 11.5t13.5 33.5q0 23 -12.5 35t-36.5 12q-23 0 -36 -12t-13 -35q0 -22 13 -33.5t36 -11.5zM152 562q19 0 30 10.5t11 27.5q0 19 -10.5 29.5t-30.5 10.5q-41 0 -41 -40q0 -17 11 -27.5t30 -10.5z" />
    <glyph glyph-name="nine.numr" horiz-adv-x="313" 
d="M150 342q-51 0 -80.5 30t-34.5 76h72q4 -20 14.5 -30t28.5 -10q30 0 42.5 27.5t15.5 60.5q-13 -13 -31.5 -21t-38.5 -8q-31 0 -56 15.5t-39.5 42.5t-14.5 59t15 59.5t42 44.5t63 17q48 0 78.5 -23.5t44.5 -62.5t14 -84q0 -48 -13.5 -92t-43.5 -72.5t-78 -28.5zM152 534
q21 0 35 14.5t14 36.5q0 23 -14 37.5t-36 14.5q-21 0 -34.5 -14t-13.5 -37t13.5 -37.5t35.5 -14.5z" />
    <glyph glyph-name="periodcentered.loclCAT" horiz-adv-x="166" 
d="M83 255q-35 0 -59 24.5t-24 58.5q0 35 24 59t59 24t59 -24t24 -59q0 -34 -24 -58.5t-59 -24.5z" />
    <glyph glyph-name="periodcentered.loclCAT.case" 
d="M-137 267q-35 0 -59 24.5t-24 58.5q0 35 24 59t59 24t59 -24t24 -59q0 -34 -24 -58.5t-59 -24.5z" />
    <glyph glyph-name="at.case" horiz-adv-x="1022" 
d="M517 -84q-103 0 -185.5 33t-141 91.5t-89.5 136.5t-31 169q0 96 34 176t95 138t143 90t179 32q94 0 174.5 -29.5t140 -83.5t93 -128.5t33.5 -165.5q0 -72 -22.5 -129t-66.5 -90t-107 -33q-47 0 -80.5 22t-50.5 62q-23 -37 -59.5 -61.5t-91.5 -24.5q-62 0 -108.5 31
t-71.5 82.5t-25 112.5q0 62 26 113t72.5 81t106.5 30q41 0 78 -16.5t61 -52.5v59h107v-283q0 -28 13 -42.5t37 -14.5q34 0 53 25t26.5 60.5t7.5 66.5q0 100 -45.5 171.5t-123.5 110t-177 38.5q-75 0 -139.5 -25t-113 -71t-75.5 -110t-27 -141q0 -70 24 -132t70 -108.5
t111 -73t146 -26.5q50 0 96.5 10t87.5 31l29 -86q-20 -10 -45 -18.5t-54 -14.5q-57 -12 -114 -12zM507 218q55 0 86.5 37t31.5 91q0 36 -15 65.5t-41.5 46.5t-61.5 17q-51 0 -85 -35t-34 -93q0 -55 32.5 -92t86.5 -37z" />
    <glyph glyph-name="plus.case" horiz-adv-x="597" 
d="M244 106v183h-188v107h188v183h109v-183h187v-107h-187v-183h-109z" />
    <glyph glyph-name="uni030C.alt" 
d="M0 546l48 154h120l-85 -154h-83z" />
    <glyph glyph-name="uni0308.case" 
d="M83 768q-35 0 -59 24t-24 59t24 59t59 24t59 -24t24 -59t-24 -59t-59 -24zM305 768q-35 0 -59 24t-24 59t24 59t59 24t59 -24t24 -59t-24 -59t-59 -24z" />
    <glyph glyph-name="uni0307.case" 
d="M83 768q-35 0 -59 24t-24 59t24 59t59 24t59 -24t24 -59t-24 -59t-59 -24z" />
    <glyph glyph-name="gravecomb.case" 
d="M226 740l-226 108v104l226 -122v-90z" />
    <glyph glyph-name="acutecomb.case" 
d="M0 740v90l226 122v-104z" />
    <glyph glyph-name="uni030B.case" 
d="M170 748l81 179h105l-106 -179h-80zM0 748l71 179h104l-94 -179h-81z" />
    <glyph glyph-name="uni030C.alt.case" 
d="M0 546l48 154h120l-85 -154h-83z" />
    <glyph glyph-name="uni0302.case" 
d="M0 747v92l146 80l146 -80v-92l-146 82z" />
    <glyph glyph-name="uni030C.case" 
d="M146 746l-146 80v92l146 -85l146 85v-92z" />
    <glyph glyph-name="uni0306.case" 
d="M155 749q-72 0 -113.5 41t-41.5 111v16h68q0 -34 19.5 -53t68.5 -19q48 0 67.5 19t19.5 53h68v-17q0 -69 -42 -110t-114 -41z" />
    <glyph glyph-name="uni030A.case" 
d="M113 751q-46 0 -79.5 30t-33.5 82t33.5 82t79.5 30q48 0 81.5 -30t33.5 -82t-33.5 -82t-81.5 -30zM113 809q23 0 38 15t15 39q0 25 -15 39.5t-38 14.5q-21 0 -36 -14.5t-15 -39.5q0 -24 15 -39t36 -15z" />
    <glyph glyph-name="tildecomb.case" 
d="M234 752q-27 0 -46 11.5t-36 23t-41 11.5q-35 0 -43 -45h-68q10 64 40.5 94t76.5 30q28 0 46.5 -11.5t36 -23t40.5 -11.5q17 0 28.5 11t14.5 34h68q-9 -64 -40.5 -94t-76.5 -30z" />
    <glyph glyph-name="uni0304.case" 
d="M0 783v91h354v-91h-354z" />
    <glyph glyph-name="uni0327.case" 
d="M0 -263v74h112q53 0 53 36q0 35 -53 35h-61v135h80v-67q35 1 64.5 -10.5t47.5 -35t18 -59.5t-18 -60t-47.5 -36t-64.5 -12h-131z" />
    <glyph glyph-name="uni0328.case" 
d="M133 -210q-54 0 -93.5 25t-39.5 79q0 40 30.5 76t109.5 70l46 20l29 -60l-52 -26q-36 -18 -51 -34t-15 -34q0 -19 14 -30t38 -11q32 0 71 15v-76q-19 -6 -41.5 -10t-45.5 -4z" />
    <glyph glyph-name="uni0308.narrow" 
d="M93 560q-35 0 -59 24t-24 59t24 59t59 24t59 -24t24 -59t-24 -59t-59 -24zM295 560q-35 0 -59 24t-24 59t24 59t59 24t59 -24t24 -59t-24 -59t-59 -24z" />
    </font>
</defs>
</svg>
